Скачать через торрент музыку Johnny Rawls - Louisiana Woman - 1997, бесплатно без регистрации torrent

Если у вас наблюдаются проблемы со скриншотами, переходом по ссылками, скачиванием торрентов - проблемы в блокировщике рекламы AdBlock. #хорошегоДня!


Статистика раздачи
Размер:  331 MB   |    Зарегистрирован:  5 лет 8 месяцев   |    .torrent скачан:  33 раза   |   
Раздают:  1  
   
Загрузка...
 
Автор Сообщение

Umakiro

avatar Umakiro


Johnny Rawls - Louisiana Woman

Жанр: Blues
Год издания диска: 1997
Аудиокодек: APE (*.ape)
Тип рипа: image+.cue
Битрейт аудио: lossless
Продолжительность: 52:18
Источник (релизер): CD
Наличие сканов в содержимом раздачи: да
Треклист:
01. I Don't Want No Woman Tyin' Me Down [0:04:33.06]
02. Louisiana Woman [0:04:37.56]
03. It's All In The Game [0:03:56.66]
04. Watcha Gonna Do? [0:05:17.20]
05. Can't Nobody [0:04:05.04]
06. You Got Me Going Through Changes [0:04:54.89]
07. It's A Shame [0:05:12.37]
08. The Blues(Good As Gold) [0:05:55.60]
09. I Got Soul [0:04:41.96]
10. Lover Man [0:03:56.40]
11. How Much Longer? [0:05:06.97]
 
Exact Audio Copy V0.99 prebeta 4 from 23. January 2008

Отчёт EAC об извлечении, выполненном 27. декабря 2009, 13:42

Johnny Rawls / Louisiana Woman

Дисковод: PLEXTOR DVDR PX-820A Adapter: 3 ID: 1

Режим чтения : ДостоверностьИспользование точного потока : ДаОтключение кэша аудио : ДаИспользование указателей C2 : Нет

Коррекция смещения при чтении : 48Способность читать области Lead-in и Lead-out : НетЗаполнение пропущенных сэмплов тишиной : ДаУдаление блоков с тишиной в начале и конце : НетПри вычислениях CRC использовались нулевые сэмплы : ДаИнтерфейс : Встроенный Win32-интерфейс для Win NT/2000

Выходной формат : Внутренние WAV-операцииФормат сэмплов : 44.100 Гц; 16 бит; стерео

TOC извлечённого CD

Трек | Старт | Длительность | Начальный сектор | Конечный сектор --------------------------------------------------------------------- 1 | 0:00.00 | 4:33.05 | 0 | 20479 2 | 4:33.05 | 4:37.42 | 20480 | 41296 3 | 9:10.47 | 3:56.50 | 41297 | 59046 4 | 13:07.22 | 5:17.15 | 59047 | 82836 5 | 18:24.37 | 4:05.03 | 82837 | 101214 6 | 22:29.40 | 4:54.67 | 101215 | 123331 7 | 27:24.32 | 5:12.28 | 123332 | 146759 8 | 32:36.60 | 5:55.45 | 146760 | 173429 9 | 38:32.30 | 4:41.72 | 173430 | 194576 10 | 43:14.27 | 3:56.30 | 194577 | 212306 11 | 47:10.57 | 5:06.73 | 212307 | 235329

Характеристики диапазона извлечения и сообщения об ошибках

Выбранный диапазон

Имя файла D:\В ПАМЯТЬ\JOHNNY RAWLS\LOUISIANA WOMAN\Johnny Rawls - Louisiana Woman.wav

Пиковый уровень 98.8 % Качество диапазона 100.0 % CRC копии 04C9DCC6 Копирование... OK

Ошибок не произошло

AccurateRip: сводка

Трек 1 точное извлечение (доверие 1) [4EA1F92A]Трек 2 точное извлечение (доверие 1) [06AA8C6A]Трек 3 точное извлечение (доверие 1) [BCB5A7A8]Трек 4 точное извлечение (доверие 1) [DE6B2F3D]Трек 5 точное извлечение (доверие 1) [5FA42D9D]Трек 6 точное извлечение (доверие 1) [B2D26BBE]Трек 7 точное извлечение (доверие 1) [C48FB7DF]Трек 8 точное извлечение (доверие 1) [B05A2504]Трек 9 точное извлечение (доверие 1) [14E9E469]Трек 10 точное извлечение (доверие 1) [EF4B7965]Трек 11 точное извлечение (доверие 1) [7A8E56BF]

Все треки извлечены точно

Конец отчёта


Трекер:  [ 27-Янв-2012 18:10 ]

  

Скачать .torrent

Размер .torrent файла 14 KB


Размер: 331 MB
Хэш (hash) релиза: 83d982a726cd98798342943fdccff09781d558b8

Еще никто не оставлял запись к записи скачать торрент Johnny Rawls - Louisiana Woman - 1997, . Будь первым!

!Обратная связь