Скачать через торрент музыку Johnny Rawls - My Turn To Win - 1999, бесплатно без регистрации torrent

Если у вас наблюдаются проблемы со скриншотами, переходом по ссылками, скачиванием торрентов - проблемы в блокировщике рекламы AdBlock. #хорошегоДня!


Статистика раздачи
Размер:  314 MB   |    Зарегистрирован:  5 лет 8 месяцев   |    .torrent скачан:  31 раз   |   
Раздают:  1  
   
Загрузка...
 
Автор Сообщение

Umakiro

avatar Umakiro


Johnny Rawls - My Turn To Win

Жанр: Blues
Год издания диска: 1999
Аудиокодек: APE (*.ape)
Тип рипа: image+.cue
Битрейт аудио: lossless
Продолжительность: 48:00
Источник (релизер): CD
Наличие сканов в содержимом раздачи: да
Треклист:
01. Bad Reputation [0:04:02.44]
02. Back In Your Arms [0:05:03.36]
03. Oh Please Come Back [0:04:20.44]
04. I Been Lookin' [0:04:32.45]
05. My Turn To Win [0:04:14.76]
06. Lucy [0:04:25.09]
07. Can't Stop Thinkin' 'Bout You [0:04:49.73]
08. Nobody's Gonna Take Your Place [0:04:30.78]
09. I Been Broken Hearted [0:04:52.96]
10. That's Why I'm Goin' Away [0:03:47.93]
11. I'll Be Alright [0:03:19.80]
 
Exact Audio Copy V0.99 prebeta 4 from 23. January 2008

Отчёт EAC об извлечении, выполненном 27. декабря 2009, 13:18

Johnny Rawls / My Turn To Win

Дисковод: PLEXTOR DVDR PX-820A Adapter: 3 ID: 1

Режим чтения : ДостоверностьИспользование точного потока : ДаОтключение кэша аудио : ДаИспользование указателей C2 : Нет

Коррекция смещения при чтении : 48Способность читать области Lead-in и Lead-out : НетЗаполнение пропущенных сэмплов тишиной : ДаУдаление блоков с тишиной в начале и конце : НетПри вычислениях CRC использовались нулевые сэмплы : ДаИнтерфейс : Встроенный Win32-интерфейс для Win NT/2000

Выходной формат : Внутренние WAV-операцииФормат сэмплов : 44.100 Гц; 16 бит; стерео

TOC извлечённого CD

Трек | Старт | Длительность | Начальный сектор | Конечный сектор --------------------------------------------------------------------- 1 | 0:00.00 | 4:02.33 | 0 | 18182 2 | 4:02.33 | 5:03.27 | 18183 | 40934 3 | 9:05.60 | 4:20.33 | 40935 | 60467 4 | 13:26.18 | 4:32.34 | 60468 | 80901 5 | 17:58.52 | 4:14.57 | 80902 | 100008 6 | 22:13.34 | 4:25.07 | 100009 | 119890 7 | 26:38.41 | 4:49.55 | 119891 | 141620 8 | 31:28.21 | 4:30.59 | 141621 | 161929 9 | 35:59.05 | 4:52.72 | 161930 | 183901 10 | 40:52.02 | 3:47.70 | 183902 | 200996 11 | 44:39.72 | 3:19.60 | 200997 | 215981

Характеристики диапазона извлечения и сообщения об ошибках

Выбранный диапазон

Имя файла D:\В ПАМЯТЬ\JOHNNY RAWLS\MY TURN TO WIN\Johnny Rawls - My Turn To Win.wav

Пиковый уровень 99.8 % Качество диапазона 100.0 % CRC копии 7DFD4ED8 Копирование... OK

Ошибок не произошло

AccurateRip: сводка

Трек 1 нет в базе данныхТрек 2 нет в базе данныхТрек 3 нет в базе данныхТрек 4 нет в базе данныхТрек 5 нет в базе данныхТрек 6 нет в базе данныхТрек 7 нет в базе данныхТрек 8 нет в базе данныхТрек 9 нет в базе данныхТрек 10 нет в базе данныхТрек 11 нет в базе данных

Ни одного трека нет в базе AccurateRip

Конец отчёта


Трекер:  [ 27-Янв-2012 18:10 ]

  

Скачать .torrent

Размер .torrent файла 13 KB


Размер: 314 MB
Хэш (hash) релиза: 6daaf97ce151f80dc6724fcb264fb803e3d82660

Еще никто не оставлял запись к записи скачать торрент Johnny Rawls - My Turn To Win - 1999, . Будь первым!

!Обратная связь