Скачать через торрент музыку Blue By Nature - Blue To The Bone - 1995, бесплатно без регистрации torrent

Если у вас наблюдаются проблемы со скриншотами, переходом по ссылками, скачиванием торрентов - проблемы в блокировщике рекламы AdBlock. #хорошегоДня!


Статистика раздачи
Размер:  421 MB   |    Зарегистрирован:  5 лет 8 месяцев   |    .torrent скачан:  30 раз   |   
Раздают:  1  
   
Загрузка...
 
Автор Сообщение

Umakiro

avatar Umakiro


Blue By Nature - Blue To The Bone

Жанр: Blues/Rock
Год издания диска: 1995
Аудиокодек: APE (*.ape)
Тип рипа: image+.cue
Битрейт аудио: lossless
Продолжительность: 1:06:46
Источник (релизер): CD
Наличие сканов в содержимом раздачи: да
Треклист:
01. Cadillac Blues [0:03:31.46]
02. Hard Lesson [0:03:38.70]
03. No Matter What I Do [0:05:20.33]
04. The Blues In My Way [0:05:21.69]
05. It's a Man's, Man's, Man's, Man's World [0:06:24.04]
06. So Many Roads, So Many Trains [0:04:11.76]
07. Goodbye Mr. Jones [0:04:36.17]
08. Love Hurts [0:05:28.49]
09. Love Me All Night [0:05:06.00]
10. Willie Boy's Shuffle [0:04:05.57]
11. One Of These Days [0:04:12.69]
12. Tell Me [0:05:00.33]
13. Grinnin' In Your Face [0:01:40.33]
14. Blue By Nature [0:08:08.24]
 
Exact Audio Copy V0.99 prebeta 4 from 23. January 2008

Отчёт EAC об извлечении, выполненном 31. мая 2010, 18:32

Blue By Nature / Blue To The Bone

Дисковод: PLEXTOR DVDR PX-820A Adapter: 3 ID: 1

Режим чтения : ДостоверностьИспользование точного потока : ДаОтключение кэша аудио : ДаИспользование указателей C2 : Нет

Коррекция смещения при чтении : 48Способность читать области Lead-in и Lead-out : НетЗаполнение пропущенных сэмплов тишиной : ДаУдаление блоков с тишиной в начале и конце : НетПри вычислениях CRC использовались нулевые сэмплы : ДаИнтерфейс : Встроенный Win32-интерфейс для Win NT/2000

Выходной формат : Внутренние WAV-операцииФормат сэмплов : 44.100 Гц; 16 бит; стерео

TOC извлечённого CD

Трек | Старт | Длительность | Начальный сектор | Конечный сектор --------------------------------------------------------------------- 1 | 0:00.00 | 3:31.35 | 0 | 15859 2 | 3:31.35 | 3:38.53 | 15860 | 32262 3 | 7:10.13 | 5:20.25 | 32263 | 56287 4 | 12:30.38 | 5:21.52 | 56288 | 80414 5 | 17:52.15 | 6:24.03 | 80415 | 109217 6 | 24:16.18 | 4:11.57 | 109218 | 128099 7 | 28:28.00 | 4:36.13 | 128100 | 148812 8 | 33:04.13 | 5:28.37 | 148813 | 173449 9 | 38:32.50 | 5:06.00 | 173450 | 196399 10 | 43:38.50 | 4:05.43 | 196400 | 214817 11 | 47:44.18 | 4:12.52 | 214818 | 233769 12 | 51:56.70 | 5:00.25 | 233770 | 256294 13 | 56:57.20 | 1:40.25 | 256295 | 263819 14 | 58:37.45 | 8:08.18 | 263820 | 300437

Характеристики диапазона извлечения и сообщения об ошибках

Выбранный диапазон

Имя файла D:\КОЛЛЕКЦИЯ 5\BLUE BY NATURE\Blue By Nature - Blue To The Bone.wav

Пиковый уровень 98.4 % Качество диапазона 100.0 % CRC копии 56EB0269 Копирование... OK

Ошибок не произошло

AccurateRip: сводка

Трек 1 точное извлечение (доверие 2) [A85DCB28]Трек 2 точное извлечение (доверие 2) [D3166006]Трек 3 точное извлечение (доверие 2) [186B13D9]Трек 4 точное извлечение (доверие 2) [D2B9F405]Трек 5 точное извлечение (доверие 2) [627A4EF3]Трек 6 точное извлечение (доверие 2) [AE0CAA60]Трек 7 точное извлечение (доверие 2) [99127EF8]Трек 8 точное извлечение (доверие 2) [B4549FA0]Трек 9 точное извлечение (доверие 2) [3F019B3F]Трек 10 точное извлечение (доверие 2) [3F6775CC]Трек 11 точное извлечение (доверие 2) [0E350EA1]Трек 12 точное извлечение (доверие 2) [CF0A8468]Трек 13 точное извлечение (доверие 2) [5AAE73FE]Трек 14 точное извлечение (доверие 2) [36BA0C78]

Все треки извлечены точно

Конец отчёта


Трекер:  [ 27-Янв-2012 18:09 ]

  

Скачать .torrent

Размер .torrent файла 17 KB


Размер: 421 MB
Хэш (hash) релиза: 93622d27d6ad50bc9465df38316d5093f206fea0

Еще никто не оставлял запись к записи скачать торрент Blue By Nature - Blue To The Bone - 1995, . Будь первым!

!Обратная связь