Скачать через торрент музыку Tinsley Ellis - Trouble Time - 1992, бесплатно без регистрации torrent

Если у вас наблюдаются проблемы со скриншотами, переходом по ссылками, скачиванием торрентов - проблемы в блокировщике рекламы AdBlock. #хорошегоДня!


Статистика раздачи
Размер:  300 MB   |    Зарегистрирован:  5 лет 8 месяцев   |    .torrent скачан:  47 раз   |   
Раздают:  1  
   
Загрузка...
 
Автор Сообщение

Umakiro

avatar Umakiro


Tinsley Ellis - Trouble Time

Жанр: Blues/Rock
Год издания диска: 1992
Аудиокодек: APE (*.ape)
Тип рипа: image+.cue
Битрейт аудио: lossless
Продолжительность: 53:05
Источник (релизер): CD
Наличие сканов в содержимом раздачи: да
Треклист:
01. Highwayman [0:03:16.24]
02. Hey Hey Baby [0:03:54.76]
03. Sign Of The Blues [0:04:17.66]
04. What Have I Done Wrong? [0:04:55.33]
05. The Big Chicken [0:02:52.66]
06. The Axe [0:07:34.66]
07. Come Morning [0:02:32.17]
08. My Restless Heart [0:05:42.49]
09. Bad Dream [0:03:40.33]
10. The Hulk [0:04:10.20]
11. Now I'm Gone [0:06:54.46]
12. Red Dress [0:03:14.20]
 
Exact Audio Copy V0.99 prebeta 4 from 23. January 2008

Отчёт EAC об извлечении, выполненном 27. ноября 2009, 3:38

Tinsley ELLIS / Trouble Time

Дисковод: PLEXTOR DVDR PX-820A Adapter: 3 ID: 1

Режим чтения : ДостоверностьИспользование точного потока : ДаОтключение кэша аудио : ДаИспользование указателей C2 : Нет

Коррекция смещения при чтении : 48Способность читать области Lead-in и Lead-out : НетЗаполнение пропущенных сэмплов тишиной : ДаУдаление блоков с тишиной в начале и конце : НетПри вычислениях CRC использовались нулевые сэмплы : ДаИнтерфейс : Встроенный Win32-интерфейс для Win NT/2000

Выходной формат : Внутренние WAV-операцииФормат сэмплов : 44.100 Гц; 16 бит; стерео

TOC извлечённого CD

Трек | Старт | Длительность | Начальный сектор | Конечный сектор --------------------------------------------------------------------- 1 | 0:00.00 | 3:16.18 | 0 | 14717 2 | 3:16.18 | 3:54.57 | 14718 | 32324 3 | 7:11.00 | 4:17.50 | 32325 | 51649 4 | 11:28.50 | 4:55.25 | 51650 | 73799 5 | 16:24.00 | 2:52.50 | 73800 | 86749 6 | 19:16.50 | 7:34.50 | 86750 | 120849 7 | 26:51.25 | 2:32.13 | 120850 | 132262 8 | 29:23.38 | 5:42.37 | 132263 | 157949 9 | 35:06.00 | 3:40.25 | 157950 | 174474 10 | 38:46.25 | 4:10.15 | 174475 | 193239 11 | 42:56.40 | 6:54.35 | 193240 | 224324 12 | 49:51.00 | 3:14.15 | 224325 | 238889

Характеристики диапазона извлечения и сообщения об ошибках

Выбранный диапазон

Имя файла D:\Муз раздача 1\TINSLEY ELLIS\TROUBLE TIME\Tinsley ELLIS - Trouble Time.wav

Пиковый уровень 99.6 % Качество диапазона 100.0 % CRC копии B0249D02 Копирование... OK

Ошибок не произошло

AccurateRip: сводка

Трек 1 нет в базе данныхТрек 2 нет в базе данныхТрек 3 нет в базе данныхТрек 4 нет в базе данныхТрек 5 нет в базе данныхТрек 6 нет в базе данныхТрек 7 нет в базе данныхТрек 8 нет в базе данныхТрек 9 нет в базе данныхТрек 10 нет в базе данныхТрек 11 нет в базе данныхТрек 12 нет в базе данных

Ни одного трека нет в базе AccurateRip

Конец отчёта


Трекер:  [ 27-Янв-2012 18:08 ]

  

Скачать .torrent

Размер .torrent файла 12 KB


Размер: 300 MB
Хэш (hash) релиза: 211c1035fd84008f99a1b10777de0754fa6d6c51

Еще никто не оставлял запись к записи скачать торрент Tinsley Ellis - Trouble Time - 1992, . Будь первым!

!Обратная связь