Скачать через торрент музыку Walter Trout Band - Life In The Jungle - 1990, FLAC бесплатно без регистрации torrent

Если у вас наблюдаются проблемы со скриншотами, переходом по ссылками, скачиванием торрентов - проблемы в блокировщике рекламы AdBlock. #хорошегоДня!


Статистика раздачи
Размер:  375 MB   |    Зарегистрирован:  5 лет 8 месяцев   |    .torrent скачан:  35 раз   |   
Раздают:  1  
   
Загрузка...
 
Автор Сообщение

Umakiro

avatar Umakiro


Walter Trout Band - Life In The Jungle

Жанр: Blues Rock
Страна-производитель диска: Netherlands
Год издания диска: 1990
Издатель (лейбл): Provogue
Номер по каталогу: PRD 70202
Аудио кодек: FLAC (*.flac)
Тип рипа: tracks+.cue
Битрейт аудио: lossless
Продолжительность: 53:50
Источник (релизер): пиратская бухта , релизер KingMcQueen
Наличие сканов в содержимом раздачи: да

Треклист:
01 - Good Enough To Eat
02 - The Mountain Song
03 - Life In The Jungle
04 - Spacefish
05 - Red House
06 - She's Out There Somewhere
07 - Frederica (I Don't Need You)
08 - In My Mind
09 - Cold Cold Feeling
10 - Serve Me Right To Suffer
 
EAC extraction logfile from 26. July 2007, 20:48 for CDWalter Trout Band / Life In The Jungle

Used drive : LITE-ON CD-RW SOHR-5238S Adapter: 2 ID: 0Read mode : Secure with NO C2, accurate stream, disable cacheRead offset correction : 6Overread into Lead-In and Lead-Out : No

Used output format : C:\WINDOWS\flac.exe (User Defined Encoder) 128 kBit/s Additional command line options : --best -V -T "ARTIST=%a" -T "TITLE=%t" -T "ALBUM=%g" -T "TRACKNUMBER=%n" %s

Other options : Fill up missing offset samples with silence : Yes Delete leading and trailing silent blocks : No Native Win32 interface for Win NT & 2000

Track 1 Filename E:\My Music\Walter Trout Band - Life In The Jungle (1990) [FLAC] (PRD 70202)\01 - Good Enough To Eat.wav

Pre-gap length 0:00:02.42

Peak level 97.2 % Track quality 100.0 % Test CRC 1693DBE4 Copy CRC 1693DBE4 Copy OK

Track 2 Filename E:\My Music\Walter Trout Band - Life In The Jungle (1990) [FLAC] (PRD 70202)\02 - The Mountain Song.wav

Peak level 99.2 % Track quality 100.0 % Test CRC 4E702D56 Copy CRC 4E702D56 Copy OK

Track 3 Filename E:\My Music\Walter Trout Band - Life In The Jungle (1990) [FLAC] (PRD 70202)\03 - Life In The Jungle.wav

Peak level 96.4 % Track quality 100.0 % Test CRC 73A743B6 Copy CRC 73A743B6 Copy OK

Track 4 Filename E:\My Music\Walter Trout Band - Life In The Jungle (1990) [FLAC] (PRD 70202)\04 - Spacefish.wav

Peak level 40.8 % Track quality 99.7 % Test CRC 492C4C2C Copy CRC 492C4C2C Copy OK

Track 5 Filename E:\My Music\Walter Trout Band - Life In The Jungle (1990) [FLAC] (PRD 70202)\05 - Red House.wav

Peak level 99.2 % Track quality 99.9 % Test CRC F075C4E5 Copy CRC F075C4E5 Copy OK

Track 6 Filename E:\My Music\Walter Trout Band - Life In The Jungle (1990) [FLAC] (PRD 70202)\06 - She's Out There Somewhere.wav

Peak level 90.6 % Track quality 100.0 % Test CRC 2DC31EA5 Copy CRC 2DC31EA5 Copy OK

Track 7 Filename E:\My Music\Walter Trout Band - Life In The Jungle (1990) [FLAC] (PRD 70202)\07 - Frederica (I Don't Need You).wav

Peak level 97.2 % Track quality 100.0 % Test CRC D4384DF3 Copy CRC D4384DF3 Copy OK

Track 8 Filename E:\My Music\Walter Trout Band - Life In The Jungle (1990) [FLAC] (PRD 70202)\08 - In My Mind.wav

Peak level 98.9 % Track quality 100.0 % Test CRC DC0ECFD4 Copy CRC DC0ECFD4 Copy OK

Track 9 Filename E:\My Music\Walter Trout Band - Life In The Jungle (1990) [FLAC] (PRD 70202)\09 - Cold Cold Feeling.wav

Peak level 98.9 % Track quality 100.0 % Test CRC 89A151C7 Copy CRC 89A151C7 Copy OK

Track 10 Filename E:\My Music\Walter Trout Band - Life In The Jungle (1990) [FLAC] (PRD 70202)\10 - Serve Me Right To Suffer.wav

Peak level 99.2 % Track quality 100.0 % Test CRC BE336AC7 Copy CRC BE336AC7 Copy OK

No errors occured

End of status report
 
REM GENRE BluesREM DATE 1990REM DISCID 920CA20AREM COMMENT "ExactAudioCopy v0.95b3"PERFORMER "Walter Trout Band"TITLE "Life In The Jungle"FILE "01 - Good Enough To Eat.wav" WAVE TRACK 01 AUDIO TITLE "Good Enough To Eat" PERFORMER "Walter Trout Band" PREGAP 00:00:32 INDEX 01 00:00:00FILE "02 - The Mountain Song.wav" WAVE TRACK 02 AUDIO TITLE "The Mountain Song" PERFORMER "Walter Trout Band" INDEX 01 00:00:00FILE "03 - Life In The Jungle.wav" WAVE TRACK 03 AUDIO TITLE "Life In The Jungle" PERFORMER "Walter Trout Band" INDEX 01 00:00:00FILE "04 - Spacefish.wav" WAVE TRACK 04 AUDIO TITLE "Spacefish" PERFORMER "Walter Trout Band" INDEX 01 00:00:00FILE "05 - Red House.wav" WAVE TRACK 05 AUDIO TITLE "Red House" PERFORMER "Walter Trout Band" INDEX 01 00:00:00FILE "06 - She's Out There Somewhere.wav" WAVE TRACK 06 AUDIO TITLE "She's Out There Somewhere" PERFORMER "Walter Trout Band" INDEX 01 00:00:00FILE "07 - Frederica (I Don't Need You).wav" WAVE TRACK 07 AUDIO TITLE "Frederica (I Don't Need You)" PERFORMER "Walter Trout Band" INDEX 01 00:00:00FILE "08 - In My Mind.wav" WAVE TRACK 08 AUDIO TITLE "In My Mind" PERFORMER "Walter Trout Band" INDEX 01 00:00:00FILE "09 - Cold Cold Feeling.wav" WAVE TRACK 09 AUDIO TITLE "Cold Cold Feeling" PERFORMER "Walter Trout Band" INDEX 01 00:00:00FILE "10 - Serve Me Right To Suffer.wav" WAVE TRACK 10 AUDIO TITLE "Serve Me Right To Suffer" PERFORMER "Walter Trout Band" INDEX 01 00:00:00
 
-----------------------

DON'T MODIFY THIS FILE

-----------------------

PERFORMER: auCDtect Task Manager, ver. 1.5.1RC4 build 1.5.1.5Copyright (c) 2008-2010 y-soft. All rights reservedhttp://y-soft.org

ANALYZER: auCDtect: CD records authenticity detector, version 0.8.2Copyright (c) 2004 Oleg Berngardt. All rights reserved.Copyright (c) 2004 Alexander Djourik. All rights reserved.

FILE: 10 - Serve Me Right To Suffer.flac Size: 52820953 Hash: 8675C643B0DCC0F1CCE3483E80D4FA46 Accuracy: -m0 Conclusion: CDDA 100% Signature: 17A02C1F6C6D90514C0903FC1B28D63686BEA0BAFILE: 09 - Cold Cold Feeling.flac Size: 56360133 Hash: A732ADBEE3B5C697BC934203D3E87B89 Accuracy: -m0 Conclusion: CDDA 100% Signature: 9EC17A81BFC0466AE48FA2A4199118030BBB78DEFILE: 08 - In My Mind.flac Size: 32020723 Hash: 11599C81A727A4E9CFD65DBDCF523587 Accuracy: -m0 Conclusion: CDDA 100% Signature: 41D52B5F24C948CBACC10DBB4D8B6832B4F295DEFILE: 07 - Frederica (I Don't Need You).flac Size: 35167324 Hash: 6D94FC35CB4E6C1360210410B0719778 Accuracy: -m0 Conclusion: CDDA 100% Signature: 68F81F465236BE56090AA3060ACA63F18A82B10AFILE: 06 - She's Out There Somewhere.flac Size: 32126838 Hash: 8C0A534564DBC9E5DF1D26D416B6F184 Accuracy: -m0 Conclusion: CDDA 100% Signature: D13FA5D5354F4547A4825C262871D5164843257EFILE: 05 - Red House.flac Size: 66775419 Hash: 76044ECD8F9AAB69B81BFCB5974733C6 Accuracy: -m0 Conclusion: CDDA 100% Signature: A0500AECC0D087E347ABAD5451315C43B62F1D28FILE: 04 - Spacefish.flac Size: 3595048 Hash: 487D787CFCD1392DF250E96D40FBEC42 Accuracy: -m0 Conclusion: CDDA 100% Signature: 58EA571E2E8AA35E52CE76ABE897D48101C893BDFILE: 03 - Life In The Jungle.flac Size: 42355320 Hash: CE9AA7C40E303293BCED1881EB7596EA Accuracy: -m0 Conclusion: CDDA 99% Signature: 1486E797F537B819B0EF540A1F08C88B0D7BE26DFILE: 02 - The Mountain Song.flac Size: 25920723 Hash: A0545318D4843DD7DF60247BE4076798 Accuracy: -m0 Conclusion: CDDA 100% Signature: 542FB396480F5AC79CAB8AC8169A9B9598C9A7CDFILE: 01 - Good Enough To Eat.flac Size: 33825513 Hash: 6A0C5E0F85CEF52B3269B1C1C48A5F8B Accuracy: -m0 Conclusion: CDDA 100% Signature: F40AD3EE2D932085101537BAD68E68DC6B5AAE6E
 
[CUETools log; Date: 29.01.2011 21:28:19; Version: 2.0.9]Pregap length 00:00:32.[CTDB TOCID: AvnkUgoRMR2.5ri4nJ2fbGHzJ64-] disk not present in database.[AccurateRip ID: 0012428f-009573bc-920ca20a] found.Track Status 01 (24/24) Accurately ripped, all offset(s) -1934(6),-1270(6),0(12) 02 (24/24) Accurately ripped, all offset(s) -1934(6),-1270(6),0(12) 03 (22/22) Accurately ripped, all offset(s) -1934(6),-1270(6),0(10) 04 (23/23) Accurately ripped, all offset(s) -1934(6),-1270(6),0(11) 05 (22/22) Accurately ripped, all offset(s) -1934(6),-1270(6),0(10) 06 (23/23) Accurately ripped, all offset(s) -1934(6),-1270(6),0(11) 07 (23/23) Accurately ripped, all offset(s) -1934(6),-1270(6),0(11) 08 (24/24) Accurately ripped, all offset(s) -1934(6),-1270(6),0(12) 09 (24/24) Accurately ripped, all offset(s) -1934(6),-1270(6),0(12) 10 (24/24) Accurately ripped, all offset(s) -1934(6),-1270(6),0(12)

Track Peak [ CRC32 ] [W/O NULL] [ LOG ] -- 99,2 [605E8B5D] [0D23A596] 01 97,2 [1693DBE4] [2B0999B9] CRC32 02 99,2 [4E702D56] [F32D2BB5] CRC32 03 96,4 [73A743B6] [222E0F3B] CRC32 04 40,8 [492C4C2C] [A37EED26] CRC32 05 99,2 [F075C4E5] [E7834107] CRC32 06 90,6 [2DC31EA5] [DE95DB59] CRC32 07 97,2 [D4384DF3] [F4CF82BF] CRC32 08 98,9 [DC0ECFD4] [1665363B] CRC32 09 98,9 [89A151C7] [8CD5EAE2] CRC32 10 99,2 [BE336AC7] [0ABA835E] CRC32
Recorded at Electra Studios, Stockholm between June 21 and July 9, 1989
and at the Midtfyn-Festival, Denmark on July 2, 1989
Walter Trout (vocals, guitar, harmonica);
Dan Abrams (piano, Hammond B-3 organ);
James Trapp (bass);
Leroy Larson (drums)


Трекер:  [ 27-Янв-2012 18:08 ]

  

Скачать .torrent

Размер .torrent файла 16 KB


Размер: 375 MB
Хэш (hash) релиза: 1e3c730fb7acb918978fef729bc78cb5bc68e8bc

Еще никто не оставлял запись к записи скачать торрент Walter Trout Band - Life In The Jungle - 1990, FLAC . Будь первым!

!Обратная связь