Скачать через торрент музыку Mick Martin & The Blues Rockers - Blues Plate Special - 1994, FLAC бесплатно без регистрации torrent

Если у вас наблюдаются проблемы со скриншотами, переходом по ссылками, скачиванием торрентов - проблемы в блокировщике рекламы AdBlock. #хорошегоДня!


Статистика раздачи
Размер:  350 MB   |    Зарегистрирован:  5 лет 8 месяцев   |    .torrent скачан:  31 раз   |   
Раздают:  1  
   
Загрузка...
 
Автор Сообщение

Umakiro

avatar Umakiro


Mick Martin & The Blues Rockers - Blues Plate Special

Жанр: Blues-Rock
Дата выхода диска: 1994
Лейбл: Blues Rock Records BR 003
Тип рипа: FLAC, tracks+.cue, lossless
Продолжительность: 57'25''
Сканы в раздаче: присутствуют

1. She Must Be Crazy (3:16)
2. There's the Door (4:12)
3. What's Goin On (4:48)
4. The Way You Used to Be (8:46)
5. High Heel Baby (4:57)
6. I Left My Blues in Chicago (3:10)
7. Voodoo Queen (5:32)
8. Boogie All Night Long (4:19)
9. Watch What You're Doin' (3:38)
10. Somebody Else (2:50)
11. Special Delivery Man (4:18)
12. Find That Girl (3:53)
13. Got to Move (3:38)

Mick Martin - Harmonica, Vocals
Tim Barnes - Guitar, Vocals
Steve Schofer - Bass
Jerry Banks - Drums, Percussion
Russ Skarsten - Organ, Piano

...many thanks to harpdog
 
Exact Audio Copy V0.99 prebeta 3 from 28. July 2007

EAC extraction logfile from 18. August 2011, 18:04

Mick Martin & The Blues Rockers / Blues Plate Special

Used drive : BPN-KM52X16 Adapter: 2 ID: 0

Read mode : SecureUtilize accurate stream : YesDefeat audio cache : YesMake use of C2 pointers : No

Read offset correction : 6Overread into Lead-In and Lead-Out : NoFill up missing offset samples with silence : YesDelete leading and trailing silent blocks : NoNull samples used in CRC calculations : NoUsed interface : Native Win32 interface for Win NT & 2000Gap handling : Appended to previous track

Used output format : User Defined EncoderSelected bitrate : 96 kBit/sQuality : HighAdd ID3 tag : NoCommand line compressor : F:\Program Files\Exact Audio Copy\Flac\flac.exeAdditional command line options : -6 -V -T "artist=%a" -T "title=%t" -T "album=%g" -T "date=%y" -T "tracknumber=%n" -T "genre=%m" -T comment="%e" -T "comment=EAC (T&C In Burst Mode)" %s

TOC of the extracted CD

Track | Start | Length | Start sector | End sector --------------------------------------------------------- 1 | 0:00.00 | 3:16.05 | 0 | 14704 2 | 3:16.05 | 4:12.64 | 14705 | 33668 3 | 7:28.69 | 4:48.58 | 33669 | 55326 4 | 12:17.52 | 8:46.38 | 55327 | 94814 5 | 21:04.15 | 4:57.22 | 94815 | 117111 6 | 26:01.37 | 3:10.66 | 117112 | 131427 7 | 29:12.28 | 5:32.17 | 131428 | 156344 8 | 34:44.45 | 4:19.65 | 156345 | 175834 9 | 39:04.35 | 3:38.24 | 175835 | 192208 10 | 42:42.59 | 2:50.71 | 192209 | 205029 11 | 45:33.55 | 4:18.51 | 205030 | 224430 12 | 49:52.31 | 3:53.44 | 224431 | 241949 13 | 53:46.00 | 3:38.58 | 241950 | 258357

Track 1

Filename J:\Rips\Mick Martin & The Blues Rockers - 1994 - Blues Plate Special\01 - She Must Be Crazy.wav

Pre-gap length 0:00:02.00

Peak level 100.0 % Track quality 100.0 % Test CRC 7822B350 Copy CRC 7822B350 Track not present in AccurateRip database Copy OK

Track 2

Filename J:\Rips\Mick Martin & The Blues Rockers - 1994 - Blues Plate Special\02 - There's the Door.wav

Peak level 100.0 % Track quality 100.0 % Test CRC CEA99962 Copy CRC CEA99962 Track not present in AccurateRip database Copy OK

Track 3

Filename J:\Rips\Mick Martin & The Blues Rockers - 1994 - Blues Plate Special\03 - What's Goin' On.wav

Peak level 100.0 % Track quality 100.0 % Test CRC 0AFB767E Copy CRC 0AFB767E Track not present in AccurateRip database Copy OK

Track 4

Filename J:\Rips\Mick Martin & The Blues Rockers - 1994 - Blues Plate Special\04 - The Way You Used To Be.wav

Peak level 100.0 % Track quality 100.0 % Test CRC 0E42CD4E Copy CRC 0E42CD4E Track not present in AccurateRip database Copy OK

Track 5

Filename J:\Rips\Mick Martin & The Blues Rockers - 1994 - Blues Plate Special\05 - High Heel Baby.wav

Peak level 100.0 % Track quality 100.0 % Test CRC 5592E770 Copy CRC 5592E770 Track not present in AccurateRip database Copy OK

Track 6

Filename J:\Rips\Mick Martin & The Blues Rockers - 1994 - Blues Plate Special\06 - I Left My Blues in Chicago.wav

Peak level 100.0 % Track quality 100.0 % Test CRC A6B7AC49 Copy CRC A6B7AC49 Track not present in AccurateRip database Copy OK

Track 7

Filename J:\Rips\Mick Martin & The Blues Rockers - 1994 - Blues Plate Special\07 - Voodoo Queen.wav

Peak level 95.6 % Track quality 100.0 % Test CRC C20183F7 Copy CRC C20183F7 Track not present in AccurateRip database Copy OK

Track 8

Filename J:\Rips\Mick Martin & The Blues Rockers - 1994 - Blues Plate Special\08 - Boogie All Night Long.wav

Peak level 92.3 % Track quality 100.0 % Test CRC 8A9894C9 Copy CRC 8A9894C9 Track not present in AccurateRip database Copy OK

Track 9

Filename J:\Rips\Mick Martin & The Blues Rockers - 1994 - Blues Plate Special\09 - Watch What Your're Doin'.wav

Peak level 100.0 % Track quality 100.0 % Test CRC D3C57974 Copy CRC D3C57974 Track not present in AccurateRip database Copy OK

Track 10

Filename J:\Rips\Mick Martin & The Blues Rockers - 1994 - Blues Plate Special\10 - Somebody Else.wav

Peak level 75.8 % Track quality 100.0 % Test CRC D24F76DF Copy CRC D24F76DF Track not present in AccurateRip database Copy OK

Track 11

Filename J:\Rips\Mick Martin & The Blues Rockers - 1994 - Blues Plate Special\11 - Special Delivery Man.wav

Peak level 100.0 % Track quality 99.9 % Test CRC B8CCC573 Copy CRC B8CCC573 Track not present in AccurateRip database Copy OK

Track 12

Filename J:\Rips\Mick Martin & The Blues Rockers - 1994 - Blues Plate Special\12 - Find That Girl Got to Move.wav

Peak level 100.0 % Track quality 100.0 % Test CRC 0453A497 Copy CRC 0453A497 Track not present in AccurateRip database Copy OK

Track 13

Filename J:\Rips\Mick Martin & The Blues Rockers - 1994 - Blues Plate Special\13 - Got to Move.wav

Peak level 97.3 % Track quality 100.0 % Test CRC E51D3080 Copy CRC E51D3080 Track not present in AccurateRip database Copy OK

None of the tracks are present in the AccurateRip database

No errors occurred

End of status report
 
REM GENRE BluesREM DATE 1994REM DISCID C70D740DREM COMMENT "ExactAudioCopy v0.99pb3"PERFORMER "Mick Martin & The Blues Rockers"TITLE "Blues Plate Special"FILE "01 - She Must Be Crazy.wav" WAVE TRACK 01 AUDIO TITLE "She Must Be Crazy" PERFORMER "Mick Martin & The Blues Rockers" FLAGS DCP INDEX 01 00:00:00FILE "02 - There's the Door.wav" WAVE TRACK 02 AUDIO TITLE "There's the Door" PERFORMER "Mick Martin & The Blues Rockers" FLAGS DCP INDEX 01 00:00:00FILE "03 - What's Goin' On.wav" WAVE TRACK 03 AUDIO TITLE "What's Goin' On" PERFORMER "Mick Martin & The Blues Rockers" FLAGS DCP INDEX 01 00:00:00FILE "04 - The Way You Used To Be.wav" WAVE TRACK 04 AUDIO TITLE "The Way You Used To Be" PERFORMER "Mick Martin & The Blues Rockers" FLAGS DCP INDEX 01 00:00:00FILE "05 - High Heel Baby.wav" WAVE TRACK 05 AUDIO TITLE "High Heel Baby" PERFORMER "Mick Martin & The Blues Rockers" FLAGS DCP INDEX 01 00:00:00FILE "06 - I Left My Blues in Chicago.wav" WAVE TRACK 06 AUDIO TITLE "I Left My Blues in Chicago" PERFORMER "Mick Martin & The Blues Rockers" FLAGS DCP INDEX 01 00:00:00FILE "07 - Voodoo Queen.wav" WAVE TRACK 07 AUDIO TITLE "Voodoo Queen" PERFORMER "Mick Martin & The Blues Rockers" FLAGS DCP INDEX 01 00:00:00FILE "08 - Boogie All Night Long.wav" WAVE TRACK 08 AUDIO TITLE "Boogie All Night Long" PERFORMER "Mick Martin & The Blues Rockers" FLAGS DCP INDEX 01 00:00:00FILE "09 - Watch What Your're Doin'.wav" WAVE TRACK 09 AUDIO TITLE "Watch What Your're Doin'" PERFORMER "Mick Martin & The Blues Rockers" FLAGS DCP INDEX 01 00:00:00FILE "10 - Somebody Else.wav" WAVE TRACK 10 AUDIO TITLE "Somebody Else" PERFORMER "Mick Martin & The Blues Rockers" FLAGS DCP INDEX 01 00:00:00FILE "11 - Special Delivery Man.wav" WAVE TRACK 11 AUDIO TITLE "Special Delivery Man" PERFORMER "Mick Martin & The Blues Rockers" FLAGS DCP INDEX 01 00:00:00FILE "12 - Find That Girl Got to Move.wav" WAVE TRACK 12 AUDIO TITLE "Find That Girl Got to Move" PERFORMER "Mick Martin & The Blues Rockers" FLAGS DCP INDEX 01 00:00:00FILE "13 - Got to Move.wav" WAVE TRACK 13 AUDIO TITLE "Got to Move" PERFORMER "Mick Martin & The Blues Rockers" FLAGS DCP INDEX 01 00:00:00
 
-----------------------

DON'T MODIFY THIS FILE

-----------------------

PERFORMER: auCDtect Task Manager, ver. 1.5.1RC3 build 1.5.1.4Copyright (c) 2008-2010 y-soft. All rights reservedhttp://y-soft.org

ANALYZER: auCDtect: CD records authenticity detector, version 0.8.2Copyright (c) 2004 Oleg Berngardt. All rights reserved.Copyright (c) 2004 Alexander Djourik. All rights reserved.

FILE: 13 - Got to Move.flac Size: 21165715 Hash: EFD32A0E3D4470AA75987419D80F765F Accuracy: -m8 Conclusion: CDDA 100% Signature: 980EC00CEA89D450CCBAC42535770FA53A154A2EFILE: 12 - Find That Girl Got to Move.flac Size: 25879051 Hash: 32DDED7297763E5E3EE77A978EADE8F6 Accuracy: -m8 Conclusion: CDDA 100% Signature: A1FCEFAE1A8789E788386E2E97E296CCF51A1615FILE: 11 - Special Delivery Man.flac Size: 27438306 Hash: F9CF09715EF42A4CB315A6F67C5E466C Accuracy: -m8 Conclusion: CDDA 100% Signature: 029DBBB4CD95D701741448C6952A4B68CE10E9CFFILE: 10 - Somebody Else.flac Size: 18477671 Hash: C0F07C8C06C475C694C8BAA3D835EB0A Accuracy: -m8 Conclusion: CDDA 100% Signature: FD4F3D21C5FA245A3FB8CFB8B372442776C955A5FILE: 09 - Watch What Your're Doin'.flac Size: 23580702 Hash: 41D400F2F587A23470FE646C0A9D4C97 Accuracy: -m8 Conclusion: CDDA 100% Signature: 19160817EC23F97FFC0B297A96448C503F47874FFILE: 08 - Boogie All Night Long.flac Size: 26348202 Hash: 5A73956205E72132D5A2D9BE5DF89458 Accuracy: -m8 Conclusion: CDDA 100% Signature: 13B1E0AB01D1C1B3C11241F2F1ABA9E6F92D9E6DFILE: 07 - Voodoo Queen.flac Size: 36467116 Hash: 1664DDDB6941F36C304CAF905A08B48B Accuracy: -m0 Conclusion: CDDA 99% Signature: EC41F40EAD96BD1530CF0147E36A8A37392C4559FILE: 06 - I Left My Blues in Chicago.flac Size: 19988058 Hash: 13BD29AAADB0B92128856DB084680F66 Accuracy: -m0 Conclusion: CDDA 100% Signature: EA0FB82AC47320478191DB8BEA3BC6967DB9A12BFILE: 05 - High Heel Baby.flac Size: 32245187 Hash: D20DDAB8BD78F7320874F47EDD0EEB10 Accuracy: -m0 Conclusion: CDDA 100% Signature: B2E3C6948186D17D3DEF70564084BEA0C4E983C6FILE: 04 - The Way You Used To Be.flac Size: 48051154 Hash: 5B363BF2390B8D95F470F1BB516CEA39 Accuracy: -m0 Conclusion: CDDA 100% Signature: C3B6045DD9F2F088DFC0A742FC77E2123B90FC1AFILE: 03 - What's Goin' On.flac Size: 30033690 Hash: 9CE1DE12A1BEA4FA37C8E6509F5DCE75 Accuracy: -m0 Conclusion: CDDA 100% Signature: C90716E623BF1CCC4C127AD84B95834B68729B56FILE: 02 - There's the Door.flac Size: 26469756 Hash: 4B10EA6407F9022B03CEE7024E2D8336 Accuracy: -m0 Conclusion: CDDA 100% Signature: 3F49446C8D280100747033B100CBD5038347E12AFILE: 01 - She Must Be Crazy.flac Size: 20035020 Hash: DFA52CCABFA5F9A0EFE9D9F42CA2C2EF Accuracy: -m0 Conclusion: CDDA 100% Signature: 423E2841A033B8CC1B8B19423C175A17B87D6EFD


Трекер:  [ 27-Янв-2012 18:06 ]

  

Скачать .torrent

Размер .torrent файла 15 KB


Размер: 350 MB
Хэш (hash) релиза: f73afbdf24fbca0408c12f093315e8b852057711

Еще никто не оставлял запись к записи скачать торрент Mick Martin & The Blues Rockers - Blues Plate Special - 1994, FLAC . Будь первым!

!Обратная связь