Скачать через торрент музыку Eric Sardinas And Big Motor - Sticks And Stones - 2011, APE бесплатно без регистрации torrent

Если у вас наблюдаются проблемы со скриншотами, переходом по ссылками, скачиванием торрентов - проблемы в блокировщике рекламы AdBlock. #хорошегоДня!


Статистика раздачи
Размер:  317 MB   |    Зарегистрирован:  5 лет 8 месяцев   |    .torrent скачан:  38 раз   |   
Раздают:  1  
   
Загрузка...
 
Автор Сообщение

Umakiro

avatar Umakiro


Eric Sardinas And Big Motor - Sticks And Stones

Жанр: Blues-Rock
Год издания диска: 2011
Аудиокодек: APE (*.ape)
Тип рипа: image+.cue
Битрейт аудио: lossless
Продолжительность: 39:46
Источник (релизер): CD
Наличие сканов в содержимом раздачи: да
Треклист:
01. Cherry Wine [0:04:07.14]
02. Road To Ruin [0:03:17.94]
03. Full Tilt Mama [0:02:10.69]
04. County Line [0:04:12.28]
05. Through The Thorns [0:04:55.60]
06. Burnin' Sugar [0:04:10.37]
07. Ratchet Blues [0:01:39.96]
08. Behind The Eight [0:03:49.54]
09. Goodness [0:04:09.08]
10. Make It Shine [0:03:23.06]
11. Too Many Ghosts [0:03:50.49]
 
Exact Audio Copy V0.99 prebeta 4 from 23. January 2008

Отчёт EAC об извлечении, выполненном 8. октября 2011, 10:40

Eric Sardinas And Big Motor / Sticks And Stones

Дисковод: Optiarc DVD RW AD-7173A Adapter: 0 ID: 1

Режим чтения : ДостоверностьИспользование точного потока : ДаОтключение кэша аудио : ДаИспользование указателей C2 : Нет

Коррекция смещения при чтении : 48Способность читать области Lead-in и Lead-out : НетЗаполнение пропущенных сэмплов тишиной : ДаУдаление блоков с тишиной в начале и конце : НетПри вычислениях CRC использовались нулевые сэмплы : ДаИнтерфейс : Встроенный Win32-интерфейс для Win NT/2000

Выходной формат : Внутренние WAV-операцииФормат сэмплов : 44.100 Гц; 16 бит; стерео

TOC извлечённого CD

Трек | Старт | Длительность | Начальный сектор | Конечный сектор --------------------------------------------------------------------- 1 | 0:00.00 | 4:07.11 | 0 | 18535 2 | 4:07.11 | 3:17.71 | 18536 | 33381 3 | 7:25.07 | 2:10.52 | 33382 | 43183 4 | 9:35.59 | 4:12.21 | 43184 | 62104 5 | 13:48.05 | 4:55.45 | 62105 | 84274 6 | 18:43.50 | 4:10.28 | 84275 | 103052 7 | 22:54.03 | 1:39.72 | 103053 | 110549 8 | 24:34.00 | 3:49.41 | 110550 | 127765 9 | 28:23.41 | 4:09.06 | 127766 | 146446 10 | 32:32.47 | 3:23.05 | 146447 | 161676 11 | 35:55.52 | 3:50.37 | 161677 | 178963

Характеристики диапазона извлечения и сообщения об ошибках

Выбранный диапазон

Имя файла E:\РАЗДАЧИ\Eric Sardinas And Big Motor - Sticks And Stones\Eric Sardinas And Big Motor - Sticks And Stones.wav

Пиковый уровень 100.0 % Качество диапазона 99.9 % CRC теста 667AC771 CRC копии 667AC771 Копирование... OK

Ошибок не произошло

AccurateRip: сводка

Трек 1 нет в базе данныхТрек 2 нет в базе данныхТрек 3 нет в базе данныхТрек 4 нет в базе данныхТрек 5 нет в базе данныхТрек 6 нет в базе данныхТрек 7 нет в базе данныхТрек 8 нет в базе данныхТрек 9 нет в базе данныхТрек 10 нет в базе данныхТрек 11 нет в базе данных

Ни одного трека нет в базе AccurateRip

Конец отчёта


Трекер:  [ 27-Янв-2012 18:05 ]

  

Скачать .torrent

Размер .torrent файла 13 KB


Размер: 317 MB
Хэш (hash) релиза: 6e1c81cc89f836fe19050676681b1656a605b562

Еще никто не оставлял запись к записи скачать торрент Eric Sardinas And Big Motor - Sticks And Stones - 2011, APE . Будь первым!

!Обратная связь