Скачать через торрент музыку Ty Curtis Band - Stubborn Mind - 2006, FLAC бесплатно без регистрации torrent

Если у вас наблюдаются проблемы со скриншотами, переходом по ссылками, скачиванием торрентов - проблемы в блокировщике рекламы AdBlock. #хорошегоДня!


Статистика раздачи
Размер:  324 MB   |    Зарегистрирован:  5 лет 8 месяцев   |    .torrent скачан:  36 раз   |   
Раздают:  1  
   
Загрузка...
 
Автор Сообщение

Umakiro

avatar Umakiro


Ty Curtis Band - Stubborn Mind

Жанр: Blues-rock
Страна-производитель диска: USA
Год издания диска: 2006
Издатель (лейбл): TCB(Ty Curtis Band) Records
Номер по каталогу: 3673(?)
Страна: USA
Аудиокодек: FLAC (*.flac)
Тип рипа: image+.cue
Битрейт аудио: lossless
Продолжительность: 45:15
Источник (релизер): собственный диск
Наличие сканов в содержимом раздачи: да
Треклист:
1.Come On(4:00)
2.What Do I Know About Love (3:46)*
3.I Lit a Fire (4:29)+
4.What Kind of Fool (6:55)
5.When I’m Around You (3:51)*
6.No Regrets (3:59)
7.Stubborn Mind (6:15)
8.No She Don’t (3:44)
9.Led Me On – and Davis Brown (6:02)^
10.I’m Gonna Miss You (2:30)
All songs written by Ty Curtis
exept where noted
*words & music by Ty Curtis & Garry Meziere
+music by Ty Curtis ,words by Ty Curtis & Grant Montgomery
^music by Ty Curtis ,words by Ty Curtis & Davis Brown
 
X Lossless Decoder version 20111214 (138.1)

XLD extraction logfile from 2012-01-12 22:31:38 +0200

Ty Curtis / Stubborn Mind

Used drive : MATSHITA DVD-R UJ-898 (revision HC09)

Ripper mode : XLD Secure RipperDisable audio cache : OK for the drive with a cache less than 1375KiBMake use of C2 pointers : NORead offset correction : 102Max retry count : 100Gap status : Analyzed, Appended

TOC of the extracted CD Track | Start | Length | Start sector | End sector --------------------------------------------------------- 1 | 00:00:00 | 04:02:44 | 0 | 18193 2 | 04:02:44 | 03:45:31 | 18194 | 35099 3 | 07:48:00 | 04:30:52 | 35100 | 55401 4 | 12:18:52 | 06:52:64 | 55402 | 86365 5 | 19:11:41 | 03:53:67 | 86366 | 103907 6 | 23:05:33 | 03:57:40 | 103908 | 121722 7 | 27:02:73 | 05:58:38 | 121723 | 148610 8 | 33:01:36 | 03:43:69 | 148611 | 165404 9 | 36:45:30 | 05:57:31 | 165405 | 192210 10 | 42:42:61 | 02:32:23 | 192211 | 203633

AccurateRip Summary Track 01 : OK (confidence 2) Track 02 : OK (confidence 2) Track 03 : OK (confidence 2) Track 04 : OK (confidence 2) Track 05 : OK (confidence 2) Track 06 : OK (confidence 2) Track 07 : OK (confidence 2) Track 08 : OK (confidence 2) Track 09 : OK (confidence 2) Track 10 : OK (confidence 2) ->All tracks accurately ripped.

All Tracks Filename : /Volumes/NO NAME/Ty Curtis Band Stubborn Mind(2006)/01 Ty Curtis - Stubborn Mind.flac Album gain : -6.84 dB Peak : 1.000000 CRC32 hash (test run) : 6A2C9515 CRC32 hash : 6A2C9515 CRC32 hash (skip zero) : 1080171B Statistics Read error : 0 Jitter error (maybe fixed) : 0 Retry sector count : 6 Damaged sector count : 0

Track 01 Pre-gap length : 00:02:00

Track gain : -6.19 dB Peak : 1.000000 CRC32 hash (test run) : 8B42CD1B CRC32 hash : 8B42CD1B CRC32 hash (skip zero) : 1D5E9BD7 AccurateRip signature : 97BCE173 ->Accurately ripped! (confidence 2) Statistics Read error : 0 Jitter error (maybe fixed) : 0 Retry sector count : 0 Damaged sector count : 0

Track 02

Track gain : -6.93 dB Peak : 1.000000 CRC32 hash (test run) : A3F76469 CRC32 hash : A3F76469 CRC32 hash (skip zero) : 305FF600 AccurateRip signature : B8806E60 ->Accurately ripped! (confidence 2) Statistics Read error : 0 Jitter error (maybe fixed) : 0 Retry sector count : 6 Damaged sector count : 0

Track 03

Track gain : -6.63 dB Peak : 1.000000 CRC32 hash (test run) : 22F45AD6 CRC32 hash : 22F45AD6 CRC32 hash (skip zero) : ED2D9DCD AccurateRip signature : 4DE48B68 ->Accurately ripped! (confidence 2) Statistics Read error : 0 Jitter error (maybe fixed) : 0 Retry sector count : 0 Damaged sector count : 0

Track 04

Track gain : -6.25 dB Peak : 1.000000 CRC32 hash (test run) : 57259317 CRC32 hash : 57259317 CRC32 hash (skip zero) : 8618B35A AccurateRip signature : 4EB84C8F ->Accurately ripped! (confidence 2) Statistics Read error : 0 Jitter error (maybe fixed) : 0 Retry sector count : 0 Damaged sector count : 0

Track 05

Track gain : -7.61 dB Peak : 1.000000 CRC32 hash (test run) : 314D3B00 CRC32 hash : 314D3B00 CRC32 hash (skip zero) : E192754C AccurateRip signature : B68B87B0 ->Accurately ripped! (confidence 2) Statistics Read error : 0 Jitter error (maybe fixed) : 0 Retry sector count : 0 Damaged sector count : 0

Track 06

Track gain : -6.86 dB Peak : 1.000000 CRC32 hash (test run) : 4B127454 CRC32 hash : 4B127454 CRC32 hash (skip zero) : 89036458 AccurateRip signature : 1E04794C ->Accurately ripped! (confidence 2) Statistics Read error : 0 Jitter error (maybe fixed) : 0 Retry sector count : 0 Damaged sector count : 0

Track 07

Track gain : -6.37 dB Peak : 1.000000 CRC32 hash (test run) : 4F438E70 CRC32 hash : 4F438E70 CRC32 hash (skip zero) : 9C8AD9AF AccurateRip signature : 73344EC0 ->Accurately ripped! (confidence 2) Statistics Read error : 0 Jitter error (maybe fixed) : 0 Retry sector count : 0 Damaged sector count : 0

Track 08

Track gain : -7.55 dB Peak : 1.000000 CRC32 hash (test run) : 834FA012 CRC32 hash : 834FA012 CRC32 hash (skip zero) : AE55B7F0 AccurateRip signature : 811326F0 ->Accurately ripped! (confidence 2) Statistics Read error : 0 Jitter error (maybe fixed) : 0 Retry sector count : 0 Damaged sector count : 0

Track 09

Track gain : -6.74 dB Peak : 1.000000 CRC32 hash (test run) : AF315A11 CRC32 hash : AF315A11 CRC32 hash (skip zero) : 63C29076 AccurateRip signature : 1ADE174F ->Accurately ripped! (confidence 2) Statistics Read error : 0 Jitter error (maybe fixed) : 0 Retry sector count : 0 Damaged sector count : 0

Track 10

Track gain : -7.79 dB Peak : 1.000000 CRC32 hash (test run) : 1456771D CRC32 hash : 1456771D CRC32 hash (skip zero) : 8E7DC87B AccurateRip signature : 2D2338F5 ->Accurately ripped! (confidence 2) Statistics Read error : 0 Jitter error (maybe fixed) : 0 Retry sector count : 0 Damaged sector count : 0

No errors occurred

End of status report
 
-----------------------

DON'T MODIFY THIS FILE

-----------------------

PERFORMER: auCDtect Task Manager, ver. 1.5.1RC2 build 1.5.1.3Copyright (c) 2008-2010 y-soft. All rights reservedhttp://y-soft.org

ANALYZER: auCDtect: CD records authenticity detector, version 0.8.2Copyright (c) 2004 Oleg Berngardt. All rights reserved.Copyright (c) 2004 Alexander Djourik. All rights reserved.

FILE: 01 Ty Curtis - Stubborn Mind.flac Size: 319347615 Hash: E960F6740A8026C8446326E9BAD249E8 Accuracy: -m0 Conclusion: CDDA 100% Signature: F707CC8F18D926069A69B7D70BEF0E0379D1B0CC
Ty Curtis - Guitar and Vocals
Davis Brown - Drums
Jim Smith - Bass, Background Vocals
Jeff Grechny-Harmonica"No regrets","Come On","Stubborn Mind"


Трекер:  [ 27-Янв-2012 18:04 ]

  

Скачать .torrent

Размер .torrent файла 13 KB


Размер: 324 MB
Хэш (hash) релиза: 35642bdb7da4786bf1ce236aee1c24903eee3e94

Еще никто не оставлял запись к записи скачать торрент Ty Curtis Band - Stubborn Mind - 2006, FLAC . Будь первым!

!Обратная связь