Скачать через торрент музыку Ty Curtis Band - Cross That Line - 2010, FLAC бесплатно без регистрации torrent

Если у вас наблюдаются проблемы со скриншотами, переходом по ссылками, скачиванием торрентов - проблемы в блокировщике рекламы AdBlock. #хорошегоДня!


Статистика раздачи
Размер:  351 MB   |    Зарегистрирован:  5 лет 8 месяцев   |    .torrent скачан:  44 раза   |   
Раздают:  1  
   
Загрузка...
 
Автор Сообщение

Umakiro

avatar Umakiro


Ty Curtis Band / Cross That Line

Жанр: Blues - Rock
Страна-производитель диска: US
Год издания диска: 2010
Издатель (лейбл): Ty Curtis Band
Номер по каталогу: n/a
Страна: Salem Oregon, US
Аудио кодек: FLAC (*.flac)
Тип рипа: tracks+.cue
Битрейт аудио: lossless
Продолжительность: 00:53:09
Источник (релизер): What.cd, JE3146
Cканов : нет
Треклист:
01. Fools Game (4:19)
02. What He Don't Know (3:02)
03. Low Down Broken and Blue (3:46)
04. I Want You With Me (3:23)
05. Tell Me (4:00)
06. Do I Love You Too Much (5:52)
07. 5 Long Years (4:54)
08. Just Who You Are (4:17)
09. Cryin the Blues (3:19)
10. Cross That Line (4:23)
11. I Must Confess (4:29)
12. Bad News (4:45)
13. What He Don't Know (exp. version) (3:19)

Myspase
 
Exact Audio Copy V1.0 beta 1 from 15. November 2010

EAC extraction logfile from 24. January 2011, 20:20

Ty Curtis Band / Cross That Line

Used drive : PIONEER DVD-RW DVR-109 Adapter: 1 ID: 1

Read mode : SecureUtilize accurate stream : YesDefeat audio cache : YesMake use of C2 pointers : No

Read offset correction : 48Overread into Lead-In and Lead-Out : NoFill up missing offset samples with silence : YesDelete leading and trailing silent blocks : NoNull samples used in CRC calculations : YesUsed interface : Native Win32 interface for Win NT & 2000Gap handling : Appended to previous track

Used output format : User Defined EncoderSelected bitrate : 320 kBit/sQuality : HighAdd ID3 tag : NoCommand line compressor : C:\Program Files (x86)\Exact Audio Copy\Flac\flac.exeAdditional command line options : -V -8 -T "artist=%a" -T "title=%t" -T "album=%g" -T "date=%y" -T "tracknumber=%n" -T "genre=%m" %s

TOC of the extracted CD

Track | Start | Length | Start sector | End sector --------------------------------------------------------- 1 | 0:00.00 | 4:17.29 | 0 | 19303 2 | 4:17.29 | 3:00.22 | 19304 | 32825 3 | 7:17.51 | 3:44.68 | 32826 | 49693 4 | 11:02.44 | 3:21.22 | 49694 | 64790 5 | 14:23.66 | 3:58.40 | 64791 | 82680 6 | 18:22.31 | 5:50.38 | 82681 | 108968 7 | 24:12.69 | 4:52.09 | 108969 | 130877 8 | 29:05.03 | 4:15.01 | 130878 | 150003 9 | 33:20.04 | 3:17.10 | 150004 | 164788 10 | 36:37.14 | 4:21.37 | 164789 | 184400 11 | 40:58.51 | 4:27.64 | 184401 | 204489 12 | 45:26.40 | 4:43.38 | 204490 | 225752 13 | 50:10.03 | 3:19.52 | 225753 | 240729

Track 1

Filename C:\Users\Jordan\Desktop\MUSIC\Ty Curtis Band - 2010 - Cross That Line [FLAC]\01 - Fools Games.wav

Pre-gap length 0:00:02.00

Peak level 97.7 % Extraction speed 4.7 X Track quality 100.0 % Test CRC 7EC0A0C9 Copy CRC 7EC0A0C9 Accurately ripped (confidence 1) [A47ACA02] Copy OK

Track 2

Filename C:\Users\Jordan\Desktop\MUSIC\Ty Curtis Band - 2010 - Cross That Line [FLAC]\02 - What He Don't Know.wav

Pre-gap length 0:00:02.49

Peak level 97.7 % Extraction speed 4.2 X Track quality 99.9 % Test CRC F402E557 Copy CRC F402E557 Accurately ripped (confidence 1) [F382E037] Copy OK

Track 3

Filename C:\Users\Jordan\Desktop\MUSIC\Ty Curtis Band - 2010 - Cross That Line [FLAC]\03 - Low Down Broken And Blue.wav

Pre-gap length 0:00:01.60

Peak level 97.7 % Extraction speed 5.4 X Track quality 100.0 % Test CRC 9C7E79EF Copy CRC 9C7E79EF Accurately ripped (confidence 1) [39F7AE8B] Copy OK

Track 4

Filename C:\Users\Jordan\Desktop\MUSIC\Ty Curtis Band - 2010 - Cross That Line [FLAC]\04 - I Want You With Me.wav

Pre-gap length 0:00:01.64

Peak level 97.7 % Extraction speed 5.7 X Track quality 100.0 % Test CRC 6F97E88B Copy CRC 6F97E88B Accurately ripped (confidence 1) [8630F28F] Copy OK

Track 5

Filename C:\Users\Jordan\Desktop\MUSIC\Ty Curtis Band - 2010 - Cross That Line [FLAC]\05 - Tell Me.wav

Pre-gap length 0:00:01.65

Peak level 97.7 % Extraction speed 6.1 X Track quality 100.0 % Test CRC 6300AB2C Copy CRC 6300AB2C Accurately ripped (confidence 1) [FEFC3239] Copy OK

Track 6

Filename C:\Users\Jordan\Desktop\MUSIC\Ty Curtis Band - 2010 - Cross That Line [FLAC]\06 - Do I Love You Too Much.wav

Pre-gap length 0:00:01.68

Peak level 97.7 % Extraction speed 6.9 X Track quality 100.0 % Test CRC 4AE6E5BF Copy CRC 4AE6E5BF Accurately ripped (confidence 1) [FF403739] Copy OK

Track 7

Filename C:\Users\Jordan\Desktop\MUSIC\Ty Curtis Band - 2010 - Cross That Line [FLAC]\07 - Five Long Years.wav

Pre-gap length 0:00:01.74

Peak level 97.7 % Extraction speed 7.1 X Track quality 100.0 % Test CRC EED5A1F4 Copy CRC EED5A1F4 Accurately ripped (confidence 1) [349621B6] Copy OK

Track 8

Filename C:\Users\Jordan\Desktop\MUSIC\Ty Curtis Band - 2010 - Cross That Line [FLAC]\08 - Just Who You Are.wav

Pre-gap length 0:00:01.66

Peak level 97.7 % Extraction speed 6.5 X Track quality 99.9 % Test CRC 1CF09A86 Copy CRC 1CF09A86 Accurately ripped (confidence 1) [11FDF50A] Copy OK

Track 9

Filename C:\Users\Jordan\Desktop\MUSIC\Ty Curtis Band - 2010 - Cross That Line [FLAC]\09 - Cryin' The Blues.wav

Pre-gap length 0:00:01.45

Peak level 97.7 % Extraction speed 7.2 X Track quality 100.0 % Test CRC 86FAD975 Copy CRC 86FAD975 Accurately ripped (confidence 1) [CDFC2A75] Copy OK

Track 10

Filename C:\Users\Jordan\Desktop\MUSIC\Ty Curtis Band - 2010 - Cross That Line [FLAC]\10 - Cross That Line.wav

Pre-gap length 0:00:01.74

Peak level 97.7 % Extraction speed 7.6 X Track quality 100.0 % Test CRC 11192C42 Copy CRC 11192C42 Accurately ripped (confidence 1) [E927A057] Copy OK

Track 11

Filename C:\Users\Jordan\Desktop\MUSIC\Ty Curtis Band - 2010 - Cross That Line [FLAC]\11 - I Must Confess.wav

Pre-gap length 0:00:01.68

Peak level 97.7 % Extraction speed 8.0 X Track quality 100.0 % Test CRC 989C24B0 Copy CRC 989C24B0 Accurately ripped (confidence 1) [EBA4818B] Copy OK

Track 12

Filename C:\Users\Jordan\Desktop\MUSIC\Ty Curtis Band - 2010 - Cross That Line [FLAC]\12 - Bad News.wav

Pre-gap length 0:00:01.70

Peak level 97.7 % Extraction speed 8.3 X Track quality 100.0 % Test CRC E7CDAE00 Copy CRC E7CDAE00 Accurately ripped (confidence 1) [E4A6BE46] Copy OK

Track 13

Filename C:\Users\Jordan\Desktop\MUSIC\Ty Curtis Band - 2010 - Cross That Line [FLAC]\13 - What He Don't Know.wav

Pre-gap length 0:00:01.44

Peak level 97.7 % Extraction speed 8.1 X Track quality 100.0 % Test CRC 24F5948D Copy CRC 24F5948D Accurately ripped (confidence 1) [8D477C90] Copy OK

All tracks accurately ripped

No errors occurred

End of status report
 
REM GENRE BluesREM DATE 2010REM DISCID AA0C890DREM COMMENT "ExactAudioCopy v1.0b1"FILE "Ty Curtis Band - 2010 - Cross That Line [FLAC]\01 - Fools Games.wav" WAVE TRACK 01 AUDIO INDEX 01 00:00:00 TRACK 02 AUDIO INDEX 00 04:14:67FILE "Ty Curtis Band - 2010 - Cross That Line [FLAC]\02 - What He Don't Know.wav" WAVE INDEX 01 00:00:00 TRACK 03 AUDIO INDEX 00 02:58:52FILE "Ty Curtis Band - 2010 - Cross That Line [FLAC]\03 - Low Down Broken And Blue.wav" WAVE INDEX 01 00:00:00 TRACK 04 AUDIO INDEX 00 03:43:20FILE "Ty Curtis Band - 2010 - Cross That Line [FLAC]\04 - I Want You With Me.wav" WAVE INDEX 01 00:00:00 TRACK 05 AUDIO INDEX 00 03:19:48FILE "Ty Curtis Band - 2010 - Cross That Line [FLAC]\05 - Tell Me.wav" WAVE INDEX 01 00:00:00 TRACK 06 AUDIO INDEX 00 03:56:64FILE "Ty Curtis Band - 2010 - Cross That Line [FLAC]\06 - Do I Love You Too Much.wav" WAVE INDEX 01 00:00:00 TRACK 07 AUDIO INDEX 00 05:48:57FILE "Ty Curtis Band - 2010 - Cross That Line [FLAC]\07 - Five Long Years.wav" WAVE INDEX 01 00:00:00 TRACK 08 AUDIO INDEX 00 04:50:34FILE "Ty Curtis Band - 2010 - Cross That Line [FLAC]\08 - Just Who You Are.wav" WAVE INDEX 01 00:00:00 TRACK 09 AUDIO INDEX 00 04:13:42FILE "Ty Curtis Band - 2010 - Cross That Line [FLAC]\09 - Cryin' The Blues.wav" WAVE INDEX 01 00:00:00 TRACK 10 AUDIO INDEX 00 03:15:29FILE "Ty Curtis Band - 2010 - Cross That Line [FLAC]\10 - Cross That Line.wav" WAVE INDEX 01 00:00:00 TRACK 11 AUDIO INDEX 00 04:19:61FILE "Ty Curtis Band - 2010 - Cross That Line [FLAC]\11 - I Must Confess.wav" WAVE INDEX 01 00:00:00 TRACK 12 AUDIO INDEX 00 04:26:11FILE "Ty Curtis Band - 2010 - Cross That Line [FLAC]\12 - Bad News.wav" WAVE INDEX 01 00:00:00 TRACK 13 AUDIO INDEX 00 04:42:05FILE "Ty Curtis Band - 2010 - Cross That Line [FLAC]\13 - What He Don't Know.wav" WAVE INDEX 01 00:00:00
REM GENRE Blues
REM DATE 2010
REM DISCID AA0C890D
REM COMMENT "ExactAudioCopy v1.0b1"
FILE "01 - Fools Games.wav" WAVE
TRACK 01 AUDIO
INDEX 01 00:00:00
TRACK 02 AUDIO
INDEX 00 04:14:67
FILE "02 - What He Don't Know.wav" WAVE
INDEX 01 00:00:00
TRACK 03 AUDIO
INDEX 00 02:58:52
FILE "03 - Low Down Broken And Blue.wav" WAVE
INDEX 01 00:00:00
TRACK 04 AUDIO
INDEX 00 03:43:20
FILE "04 - I Want You With Me.wav" WAVE
INDEX 01 00:00:00
TRACK 05 AUDIO
INDEX 00 03:19:48
FILE "05 - Tell Me.wav" WAVE
INDEX 01 00:00:00
TRACK 06 AUDIO
INDEX 00 03:56:64
FILE "06 - Do I Love You Too Much.wav" WAVE
INDEX 01 00:00:00
TRACK 07 AUDIO
INDEX 00 05:48:57
FILE "07 - Five Long Years.wav" WAVE
INDEX 01 00:00:00
TRACK 08 AUDIO
INDEX 00 04:50:34
FILE "08 - Just Who You Are.wav" WAVE
INDEX 01 00:00:00
TRACK 09 AUDIO
INDEX 00 04:13:42
FILE "09 - Cryin' The Blues.wav" WAVE
INDEX 01 00:00:00
TRACK 10 AUDIO
INDEX 00 03:15:29
FILE "10 - Cross That Line.wav" WAVE
INDEX 01 00:00:00
TRACK 11 AUDIO
INDEX 00 04:19:61
FILE "11 - I Must Confess.wav" WAVE
INDEX 01 00:00:00
TRACK 12 AUDIO
INDEX 00 04:26:11
FILE "12 - Bad News.wav" WAVE
INDEX 01 00:00:00
TRACK 13 AUDIO
INDEX 00 04:42:05
FILE "13 - What He Don't Know.wav" WAVE
INDEX 01 00:00:00
 
AUDIOCHECKER v2.0 beta (build 457) - by Dester - opdester@freemail.hu~~~~~~~~~~~~~~~~~~~~~~~~~~~~~~~~~~-=== DO NOT EDIT THIS FILE! ===-

Path: ...\Ty Curtis Band - 2010 - Cross That Line [FLAC]

01 -=- 01 - Fools Games.flac -=- CDDA (100%)02 -=- 02 - What He Don't Know.flac -=- CDDA (100%)03 -=- 03 - Low Down Broken And Blue.flac -=- CDDA (100%)04 -=- 04 - I Want You With Me.flac -=- CDDA (100%)05 -=- 05 - Tell Me.flac -=- CDDA (100%)06 -=- 06 - Do I Love You Too Much.flac -=- CDDA (100%)07 -=- 07 - Five Long Years.flac -=- CDDA (100%)08 -=- 08 - Just Who You Are.flac -=- CDDA (100%)09 -=- 09 - Cryin' The Blues.flac -=- CDDA (100%)10 -=- 10 - Cross That Line.flac -=- CDDA (100%)11 -=- 11 - I Must Confess.flac -=- CDDA (99%)12 -=- 12 - Bad News.flac -=- CDDA (100%)13 -=- 13 - What He Don't Know.flac -=- CDDA (99%)

Summary 99,85% CDDA

92442324
Cross That Line is the first release from the band featuring their IBC award-winning line-up. It is miles ahead of their previous releases when it comes to songwriting, performance and production. Of course, that may have something to do with the Grammy-winning David Z behind the scenes in production, engineering and mixing. But it is the music that stands straight up and grabs you be the collar from the get-go. Ty’s lyrics and music show growth and these tunes shouldn’t just appeal to the blues crowd, they’re fully capable of crossing over, just as indicated by the CD’s title. Ty penned all but three of the tracks, and of the others Hank Shreve authored “Bad News.” Mike Morgan & The Crawl’s barn-burner “Do I Love You Too Much” has become a staple of their live shows and was a number that had the audience on their feet in the IBC finals in Memphis. And the oft-covered ‘Five Long Years” shows how a classic, well-known piece can take on new life when played to another outfit’s own styling as the band has done here.
Ty Curtis - Guitar & vocals
Hank Shreve - Harmonica, keys & vocals
Milo Fultz - Bass & back-up vocals
Davis Brown - Drums


Трекер:  [ 27-Янв-2012 18:04 ]

  

Скачать .torrent

Размер .torrent файла 15 KB


Размер: 351 MB
Хэш (hash) релиза: 356528d1fb6aaf3433e7f9f46617169e1a909e7a

Еще никто не оставлял запись к записи скачать торрент Ty Curtis Band - Cross That Line - 2010, FLAC . Будь первым!

!Обратная связь