Скачать через торрент музыку Dr. Hector & the Groove Injectors - Emergency - 1991, APE бесплатно без регистрации torrent

Если у вас наблюдаются проблемы со скриншотами, переходом по ссылками, скачиванием торрентов - проблемы в блокировщике рекламы AdBlock. #хорошегоДня!


Статистика раздачи
Размер:  265 MB   |    Зарегистрирован:  5 лет 8 месяцев   |    .torrent скачан:  21 раз   |   
Раздают:  1  
   
Загрузка...
 
Автор Сообщение

Umakiro

avatar Umakiro


Dr. Hector & the Groove Injectors - Emergency

Жанр: Blues-Rock
Год издания диска: 1991
Аудио кодек: APE (*.ape)
Тип рипа: image+.cue
Битрейт аудио: lossless
Продолжительность: 40:14
Источник (релизер): CD
Наличие сканов в содержимом раздачи: да
Треклист:
01. Emergency [0:03:40.73]
02. When Did Love Let Go [0:05:06.80]
03. A Woman Like You [0:03:06.46]
04. Don't Be Afraid [0:04:17.30]
05. Downtown Drinking [0:04:04.22]
06. Southern Fried Groove [0:04:21.13]
07. Bad News [0:04:25.90]
08. 14 Carat Fool [0:04:25.76]
09. Double Trouble [0:03:17.06]
10. Just To Satisfy you [0:03:28.77]
 
Exact Audio Copy V0.99 prebeta 4 from 23. January 2008

Отчёт EAC об извлечении, выполненном 24. декабря 2010, 22:45

Dr. Hector & the Groove Injectors / Emergency

Дисковод: PLEXTOR DVDR PX-820A Adapter: 3 ID: 1

Режим чтения : ДостоверностьИспользование точного потока : ДаОтключение кэша аудио : ДаИспользование указателей C2 : Нет

Коррекция смещения при чтении : 48Способность читать области Lead-in и Lead-out : НетЗаполнение пропущенных сэмплов тишиной : ДаУдаление блоков с тишиной в начале и конце : НетПри вычислениях CRC использовались нулевые сэмплы : ДаИнтерфейс : Встроенный Win32-интерфейс для Win NT/2000

Выходной формат : Внутренние WAV-операцииФормат сэмплов : 44.100 Гц; 16 бит; стерео

TOC извлечённого CD

Трек | Старт | Длительность | Начальный сектор | Конечный сектор --------------------------------------------------------------------- 1 | 0:00.12 | 3:40.55 | 12 | 16566 2 | 3:40.67 | 5:06.60 | 16567 | 39576 3 | 8:47.52 | 3:06.35 | 39577 | 53561 4 | 11:54.12 | 4:17.23 | 53562 | 72859 5 | 16:11.35 | 4:04.17 | 72860 | 91176 6 | 20:15.52 | 4:21.10 | 91177 | 110761 7 | 24:36.62 | 4:25.68 | 110762 | 130704 8 | 29:02.55 | 4:25.57 | 130705 | 150636 9 | 33:28.37 | 3:17.05 | 150637 | 165416 10 | 36:45.42 | 3:28.58 | 165417 | 181074

Характеристики диапазона извлечения и сообщения об ошибках

Выбранный диапазон

Имя файла D:\КОЛЛЕКЦИЯ 9\Новая папка\Dr. Hector & the Groove Injectors - Emergency.wav

Пиковый уровень 97.7 % Качество диапазона 100.0 % CRC копии 445B3D41 Копирование... OK

Ошибок не произошло

AccurateRip: сводка

Трек 1 нет в базе данныхТрек 2 нет в базе данныхТрек 3 нет в базе данныхТрек 4 нет в базе данныхТрек 5 нет в базе данныхТрек 6 нет в базе данныхТрек 7 нет в базе данныхТрек 8 нет в базе данныхТрек 9 нет в базе данныхТрек 10 нет в базе данных

Ни одного трека нет в базе AccurateRip

Конец отчёта


Трекер:  [ 27-Янв-2012 18:03 ]

  

Скачать .torrent

Размер .torrent файла 11 KB


Размер: 265 MB
Хэш (hash) релиза: ee3d0d131022ad9ad08d3825e93d68743dd808b0

Еще никто не оставлял запись к записи скачать торрент Dr. Hector & the Groove Injectors - Emergency - 1991, APE . Будь первым!

!Обратная связь