Скачать через торрент музыку Interstate Blues - Red Was The Sky - 2010, APE бесплатно без регистрации torrent

Если у вас наблюдаются проблемы со скриншотами, переходом по ссылками, скачиванием торрентов - проблемы в блокировщике рекламы AdBlock. #хорошегоДня!


Статистика раздачи
Размер:  333 MB   |    Зарегистрирован:  5 лет 8 месяцев   |    .torrent скачан:  31 раз   |   
Раздают:  1  
   
Загрузка...
 
Автор Сообщение

Umakiro

avatar Umakiro


Interstate Blues - Red Was The Sky

Жанр: Blues/Rock
Год издания диска: 2010
Аудио кодек: APE (*.ape)
Тип рипа: image+.cue
Битрейт аудио: lossless
Продолжительность: 49:56
Источник (релизер): Рип с вышеназванного диска
Наличие сканов в содержимом раздачи: да
Треклист:
01. The Eternal Axis Of One [0:05:56.00]
02. Don't Lead Me Blind [0:04:30.46]
03. Tintorera [0:02:28.54]
04. Red Was The Sky [0:06:32.56]
05. Help Me Find The Sun [0:07:10.40]
06. Innerspace Blues [0:06:41.94]
07. Just Go Away [0:05:19.44]
08. Stir It Up [0:04:52.34]
09. Where Do We Go To Die [0:06:24.60]
 
Exact Audio Copy V0.99 prebeta 4 from 23. January 2008

Отчёт EAC об извлечении, выполненном 25. сентября 2010, 20:10

Interstate Blues / Red Was The Sky

Дисковод: PLEXTOR DVDR PX-820A Adapter: 3 ID: 1

Режим чтения : ДостоверностьИспользование точного потока : ДаОтключение кэша аудио : ДаИспользование указателей C2 : Нет

Коррекция смещения при чтении : 48Способность читать области Lead-in и Lead-out : НетЗаполнение пропущенных сэмплов тишиной : ДаУдаление блоков с тишиной в начале и конце : НетПри вычислениях CRC использовались нулевые сэмплы : ДаИнтерфейс : Встроенный Win32-интерфейс для Win NT/2000

Выходной формат : Внутренние WAV-операцииФормат сэмплов : 44.100 Гц; 16 бит; стерео

TOC извлечённого CD

Трек | Старт | Длительность | Начальный сектор | Конечный сектор --------------------------------------------------------------------- 1 | 0:00.00 | 5:56.00 | 0 | 26699 2 | 5:56.00 | 4:30.35 | 26700 | 46984 3 | 10:26.35 | 2:28.41 | 46985 | 58125 4 | 12:55.01 | 6:32.42 | 58126 | 87567 5 | 19:27.43 | 7:10.30 | 87568 | 119847 6 | 26:37.73 | 6:41.71 | 119848 | 149993 7 | 33:19.69 | 5:19.33 | 149994 | 173951 8 | 38:39.27 | 4:52.26 | 173952 | 195877 9 | 43:31.53 | 6:24.45 | 195878 | 224722

Характеристики диапазона извлечения и сообщения об ошибках

Выбранный диапазон

Имя файла D:\КОЛЛЕКЦИЯ 01\INTERSTATE BLUES\Interstate Blues - Red Was The Sky.wav

Пиковый уровень 98.8 % Качество диапазона 100.0 % CRC копии 0F1CD195 Копирование... OK

Ошибок не произошло

AccurateRip: сводка

Трек 1 нет в базе данныхТрек 2 нет в базе данныхТрек 3 нет в базе данныхТрек 4 нет в базе данныхТрек 5 нет в базе данныхТрек 6 нет в базе данныхТрек 7 нет в базе данныхТрек 8 нет в базе данныхТрек 9 нет в базе данных

Ни одного трека нет в базе AccurateRip

Конец отчёта


Трекер:  [ 27-Янв-2012 18:03 ]

  

Скачать .torrent

Размер .torrent файла 27 KB


Размер: 333 MB
Хэш (hash) релиза: 77ea0cb60bee495c26d929da5639a9769d758d28

Еще никто не оставлял запись к записи скачать торрент Interstate Blues - Red Was The Sky - 2010, APE . Будь первым!

!Обратная связь