Скачать через торрент музыку Ana Popovic - Blind For Love бесплатно без регистрации torrent

Если у вас наблюдаются проблемы со скриншотами, переходом по ссылками, скачиванием торрентов - проблемы в блокировщике рекламы AdBlock. #хорошегоДня!


Статистика раздачи
Размер:  313 MB   |    Зарегистрирован:  5 лет 8 месяцев   |    .torrent скачан:  34 раза   |   
Раздают:  1  
   
Загрузка...
 
Автор Сообщение

Umakiro

avatar Umakiro


Ana Popovic - Blind For Love

Жанр: Blues, Blues Rock
Год выпуска диска: 2009
Производитель диска: США
Аудио кодек: FLAC
Тип рипа: image+.cue
Битрейт аудио: lossless
Продолжительность: 0:45:01
Трэклист:
01) Nothing Personal
02) Wrong Woman
03) Steal Me Away
04) Blind For Love
05) More Real
06) Putting Out The APB
07) Get Back Home To You
08) The Only Reason
09) Part Of Me (Lullaby For Luuk)
10) Lives That Don't Exist
11) Need Your Love
12) Blues For M
Доп. информация: Последний на данный момент студийный альбом этой замечательной гитаристки и певицы. Если вам нравятся её предыдущие записи, смело качайте, разочарованы не будете!
В раздаче только передняя обложка.
Exact Audio Copy V0.99 prebeta 4 from 23. January 2008

EAC extraction logfile from 21. November 2009, 18:11

Ana Popovic / Blind For Love

Used drive : PIONEER DVD-RW DVR-216D Adapter: 0 ID: 0

Read mode : Secure
Utilize accurate stream : Yes
Defeat audio cache : Yes
Make use of C2 pointers : No

Read offset correction : 96
Overread into Lead-In and Lead-Out : No
Fill up missing offset samples with silence : Yes
Delete leading and trailing silent blocks : No
Null samples used in CRC calculations : Yes
Used interface : Installed external ASPI interface

Used output format : Internal WAV Routines
Sample format : 44.100 Hz; 16 Bit; Stereo

TOC of the extracted CD

Track | Start | Length | Start sector | End sector
---------------------------------------------------------
1 | 0:00.00 | 3:36.55 | 0 | 16254
2 | 3:36.55 | 3:45.09 | 16255 | 33138
3 | 7:21.64 | 3:31.66 | 33139 | 49029
4 | 10:53.55 | 3:14.35 | 49030 | 63614
5 | 14:08.15 | 3:38.01 | 63615 | 79965
6 | 17:46.16 | 3:48.52 | 79966 | 97117
7 | 21:34.68 | 3:34.12 | 97118 | 113179
8 | 25:09.05 | 3:53.51 | 113180 | 130705
9 | 29:02.56 | 3:16.68 | 130706 | 145473
10 | 32:19.49 | 3:55.34 | 145474 | 163132
11 | 36:15.08 | 3:22.27 | 163133 | 178309
12 | 39:37.35 | 5:23.45 | 178310 | 202579

Range status and errors

Selected range

Filename D:\Torrents\Ana Popovic - Blind For Love.wav

Peak level 100.0 %
Range quality 100.0 %
Copy CRC C3DD0BBC
Copy OK

No errors occurred

AccurateRip summary

Track 1 cannot be verified as accurate (confidence 1) [4F271AA8], AccurateRip returned [A0A0799B]
Track 2 accurately ripped (confidence 1) [888CBC52]
Track 3 accurately ripped (confidence 1) [9FE55148]
Track 4 accurately ripped (confidence 1) [CCE6127E]
Track 5 accurately ripped (confidence 1) [28586768]
Track 6 accurately ripped (confidence 1) [2284D0D4]
Track 7 accurately ripped (confidence 1) [DE665E39]
Track 8 accurately ripped (confidence 1) [BCBC68FE]
Track 9 accurately ripped (confidence 1) [94EB567D]
Track 10 accurately ripped (confidence 1) [05DE6E25]
Track 11 accurately ripped (confidence 1) [A4315BAC]
Track 12 accurately ripped (confidence 1) [954CC7C6]

11 track(s) accurately ripped
1 track(s) could not be verified as accurate

Some tracks could not be verified as accurate

End of status report


Трекер:  [ 27-Янв-2012 18:02 ]

  

Скачать .torrent

Размер .torrent файла 13 KB


Размер: 313 MB
Хэш (hash) релиза: 5cb52779d75b8d4c63591d659abeddb99bf1ec7e

Еще никто не оставлял запись к записи скачать торрент Ana Popovic - Blind For Love . Будь первым!

!Обратная связь