Скачать через торрент музыку Alvin Lee - Zoom - 1992, FLAC бесплатно без регистрации torrent

Если у вас наблюдаются проблемы со скриншотами, переходом по ссылками, скачиванием торрентов - проблемы в блокировщике рекламы AdBlock. #хорошегоДня!


Статистика раздачи
Размер:  353 MB   |    Зарегистрирован:  5 лет 8 месяцев   |    .torrent скачан:  45 раз   |   
Раздают:  1  
   
Загрузка...
 
Автор Сообщение

Umakiro

avatar Umakiro


Alvin Lee - Zoom

Жанр: Blues/Blues-Rock/British Blues
Год выпуска диска: 1992
Производитель диска: Singapore/Dominoe records
Аудио кодек: FLAC
Тип рипа: image+.cue
Битрейт аудио: lossless
Продолжительность: 48:24
Трэклист:
1 A Little Bit of Love 03:45
2 Jenny, Jenny 04:22
3 Remember Me 04:35
4 Anything for You 04:53
5 The Price of This Love 04:04
6 Real Life Blues 04:33
7 It Don't Come Easy 05:05
8 Lost in Love 04:05
9 Wake Up Moma 03:55
10 Moving the Blues 04:02
11 Use That Power 04:19

Состав:
Alvin Lee guitar,vocals
George Harrison slide guitar
Jon Lord keyboard
Clarence Clemons tenor sax
Alan Young & Richard Newman drums
Steve Grant bass
Steve Gould & Deena Payne backing vocal
Exact Audio Copy V0.99 prebeta 4 from 23. January 2008

EAC extraction logfile from 16. October 2008, 19:30

Alvin Lee / Zoom

Used drive : LITE-ON DVDRW SOHW-1213S Adapter: 1 ID: 1

Read mode : Secure
Utilize accurate stream : Yes
Defeat audio cache : Yes
Make use of C2 pointers : No

Read offset correction : 12
Overread into Lead-In and Lead-Out : No
Fill up missing offset samples with silence : Yes
Delete leading and trailing silent blocks : No
Null samples used in CRC calculations : Yes
Used interface : Installed external ASPI interface

Used output format : User Defined Encoder
Selected bitrate : 1024 kBit/s
Quality : High
Add ID3 tag : No
Command line compressor : C:\Program Files\Exact Audio Copy\FLAC\FLAC.EXE
Additional command line options : -6 -V -T "ARTIST=%a" -T "TITLE=%t" -T "ALBUM=%g" -T "DATE=%y" -T "TRACKNUMBER=%n" -T "GENRE=%m" -T "COMMENT=%e" %s -o %d

TOC of the extracted CD

Track | Start | Length | Start sector | End sector
---------------------------------------------------------
1 | 0:00.00 | 3:56.27 | 0 | 17726
2 | 3:56.27 | 4:35.25 | 17727 | 38376
3 | 8:31.52 | 4:07.48 | 38377 | 56949
4 | 12:39.25 | 4:04.50 | 56950 | 75299
5 | 16:44.00 | 4:08.67 | 75300 | 93966
6 | 20:52.67 | 3:59.03 | 93967 | 111894
7 | 24:51.70 | 5:08.20 | 111895 | 135014
8 | 30:00.15 | 4:39.00 | 135015 | 155939
9 | 34:39.15 | 4:59.47 | 155940 | 178411
10 | 39:38.62 | 4:25.05 | 178412 | 198291
11 | 44:03.67 | 4:20.23 | 198292 | 217814

Range status and errors

Selected range

Filename C:\Alvin Lee - Zoom\Alvin Lee - Zoom.wav

Peak level 98.9 %
Range quality 100.0 %
Copy CRC 361D500B
Copy OK

No errors occurred

AccurateRip summary

Track 1 accurately ripped (confidence 4) [AB319C6B]
Track 2 accurately ripped (confidence 4) [A30FD0AA]
Track 3 accurately ripped (confidence 4) [B3575670]
Track 4 accurately ripped (confidence 4) [234B81DA]
Track 5 accurately ripped (confidence 4) [75A18AAB]
Track 6 accurately ripped (confidence 4) [DBFEB8AC]
Track 7 accurately ripped (confidence 4) [1BC9A4DF]
Track 8 accurately ripped (confidence 4) [9B7587AD]
Track 9 accurately ripped (confidence 4) [3C7ED736]
Track 10 accurately ripped (confidence 4) [048B0698]
Track 11 accurately ripped (confidence 4) [0AD8FFD3]

All tracks accurately ripped

End of status report
Доп. информация:
Review by Joe Viglione
Released in Europe on Castle Communications and distributed in the U.S. on Domino Entertainment, a label founded by producer Rob Fraboni, the album's tracks were all shuffled into a different order except for "A Little Bit of Love," "It Don't Come Easy," and "Use That Power." An oddity, but you could put the CD in your player on the shuffle setting and it would remain one of journeyman Alvin Lee's finest statements. The stellar track here is "Real Life Blues," which hit in spots around the states, notably in Texas and in Massachusetts. It was a Top 30 hit on the Billboard charts in Boston when the regional papers published such tracking. The track featured the unmistakable sound of George Harrison on slide guitar and Deep Purple keyboard player Jon Lord. This is a wiser, slower, more methodical sentiment than we once heard Lee make on "I'd Love to Change the World." A 16 page booklet accompanies the cover photo (the bull's eye on Lee's guitar), it's the other side of the flash guitar Lee's been known for. "A Little Bit of Love" is Ten Years After meets Power Station with thunderous drums and very smooth production. Steve Gould and Deena Payne's backing vocals chirp over Alan Young's boom-boom drumbeat on "The Price of Love," a bonafide dance tune that cries for the kind of production that the band Chic made famous — dance blues. "Moving the Blues" is a fun, Delaney & Bonnie type rocker with Clarence Clemons on tenor sax. Clemons appears on four tracks, including "Use That Power," "Jenny, Jenny" — a Little Richard meets Mitch Ryder by way of Chuck Berry fun stomper — and the funky "Wake Up Moma" which has that trademark Jon Lord keyboard filling in nicely. The instrumental "Lost in Love" is very tasteful. This is a major '60s/'70s figure making music on his own terms and it is very satisfying.
Alvin Lee born Dec 19, 1944 in Nottingham, England
Biography by All Music Guide
As with many of the other English beat groups of the '60s, Alvin Lee cut his musical teeth in Hamburg, Germany in a band called the Jaybirds. By 1966, back in England, he had changed the name of his band to Ten Years After and was rapidly becoming a major attraction because of the virtuosity of his solo work. Most Americans first became familiar with Alvin Lee through his appearance at Woodstock, although he remained active throughout the decades which followed; among his releases were 1974's In Flight, 1986's Detroit Diesel and 1996's Live in Vienna.

http://hardrockcafe.narod.ru/a/alvinlee.htm

http://www.myspace.com/alvinleerocks
Сканы в комплекте.

Трекер:  [ 27-Янв-2012 18:00 ]

  

Скачать .torrent

Размер .torrent файла 29 KB


Размер: 353 MB
Хэш (hash) релиза: 56ca568fcf3783544a6606c1e9bc642af69f86d6

Еще никто не оставлял запись к записи скачать торрент Alvin Lee - Zoom - 1992, FLAC . Будь первым!

!Обратная связь