Скачать через торрент музыку Alvin Lee & Ten Years Later - Ride On - 1979, APE бесплатно без регистрации torrent

Если у вас наблюдаются проблемы со скриншотами, переходом по ссылками, скачиванием торрентов - проблемы в блокировщике рекламы AdBlock. #хорошегоДня!


Статистика раздачи
Размер:  256 MB   |    Зарегистрирован:  5 лет 8 месяцев   |    .torrent скачан:  38 раз   |   
Раздают:  1  
   
Загрузка...
 
Автор Сообщение

Umakiro

avatar Umakiro


Alvin Lee & Ten Years Later - Ride On

Жанр: Blues
Год выпуска диска: 1979
Производитель диска: Germany
Аудио кодек: APE
Тип рипа: image+.cue
Битрейт аудио: lossless
Продолжительность: 39:01
Трэклист:

01. Ain't Nothin' Shakin'
02. Scat Encounter
03. Hey Joe
04. Going Home
05. Too Much
06. It's A Gaz
07. Ride On Cowboy
08. Sittin' Here
09. Can't Sleep At Nite
Exact Audio Copy V0.99 prebeta 4 from 23. January 2008

EAC extraction logfile from 15. October 2008, 23:20

Alvin Lee & Ten Years Later / Ride On

Used drive : _NEC DVD_RW ND-3550A Adapter: 5 ID: 0

Read mode : Secure
Utilize accurate stream : Yes
Defeat audio cache : Yes
Make use of C2 pointers : No

Read offset correction : 48
Overread into Lead-In and Lead-Out : No
Fill up missing offset samples with silence : Yes
Delete leading and trailing silent blocks : No
Null samples used in CRC calculations : Yes
Used interface : Native Win32 interface for Win NT & 2000

Used output format : Monkey's Audio Lossless Encoder
Selected bitrate : High Lossless Compression
Quality : High
Add ID3 tag : Yes
Command line compressor : C:\Program Files\Monkey's Audio\MAC.exe
Additional command line options : %l--alt-preset 128%l%h--alt-preset standard%h %s %d

TOC of the extracted CD

Track | Start | Length | Start sector | End sector
---------------------------------------------------------
1 | 0:00.00 | 5:32.46 | 0 | 24945
2 | 5:32.46 | 0:58.14 | 24946 | 29309
3 | 6:30.60 | 5:59.45 | 29310 | 56279
4 | 12:30.30 | 8:48.13 | 56280 | 95892
5 | 21:18.43 | 3:53.02 | 95893 | 113369
6 | 25:11.45 | 4:03.32 | 113370 | 131626
7 | 29:15.02 | 3:14.13 | 131627 | 146189
8 | 32:29.15 | 4:00.20 | 146190 | 164209
9 | 36:29.35 | 2:31.25 | 164210 | 175559

Range status and errors

Selected range

Filename D:\Downloads\Alvin Lee & Ten Years Later - Ride On\Alvin Lee & Ten Years Later - Ride On.wav

Peak level 99.2 %
Range quality 100.0 %
Test CRC A16EF0BC
Copy CRC A16EF0BC
Copy OK

No errors occurred

AccurateRip summary

Track 1 not present in database
Track 2 not present in database
Track 3 not present in database
Track 4 not present in database
Track 5 not present in database
Track 6 not present in database
Track 7 not present in database
Track 8 not present in database
Track 9 not present in database

None of the tracks are present in the AccurateRip database

End of status report


Трекер:  [ 27-Янв-2012 17:59 ]

  

Скачать .torrent

Размер .torrent файла 10 KB


Размер: 256 MB
Хэш (hash) релиза: d17ca7977b4048feda52f791d3159b4e28c72b7a

Еще никто не оставлял запись к записи скачать торрент Alvin Lee & Ten Years Later - Ride On - 1979, APE . Будь первым!

!Обратная связь