Скачать через торрент музыку Rick Derringer - Back To The Blues - 1993, FLAC бесплатно без регистрации torrent

Если у вас наблюдаются проблемы со скриншотами, переходом по ссылками, скачиванием торрентов - проблемы в блокировщике рекламы AdBlock. #хорошегоДня!


Статистика раздачи
Размер:  468 MB   |    Зарегистрирован:  5 лет 8 месяцев   |    .torrent скачан:  45 раз   |   
Раздают:  1  
   
Загрузка...
 
Автор Сообщение

Umakiro

avatar Umakiro


Rick Derringer - Back To The Blues (1993)

Жанр: Blues-Rock
Дата выпуска: 1993
Производитель диска, страна: Blues Bureau BB-2008-2

Аудио кодек: FLAC
Тип рипа: (tracks + .cue)
Битрейт аудио: lossless
Включает: Full artwork
Продолжительность: 1:01:00
Источник: torrent



Трэклист:
1. Trouble in Paradise (Derringer) - 5:07
2. Blue Suede Blues (Derringer) - 5:18
3. Blues All Night Long (Derringer) - 8:10
4. Mean Town Blues (Winter) - 4:07
5. Sorry for Your Heartache (Derringer) - 9:48
6. Sink or Swim (Derringer) - 5:05
7. Diamond (Derringer) - 4:59
8. Crybaby (Derringer) - 4:00
9. Unsolved Mystery (Derringer) - 4:58
10. Blue Velvet (Derringer) - 4:21
11. Time to Go (Derringer) - 5:55

Об альбоме:
http://allmusic.com/cg/amg.dll?p=amg&sql=10:fnftxqegldae

Состав:
Rick Derringer - Guitar, Vocals
Andy Doerschuk - Drums
Brad Russell - Bass
Kevin Russell - Guitar (Rhythm), Producer

Издания:
CD Blues Bureau 2008
1993 CS Shrapnel 2008
1993 CD Roadrunner 90482
- Триумфальное возвращение к блюзу одного из столпов американского блюз-рока. Рик катит свой грохочущий бронетранспортёр по глубокой колее хард - блюзовой традиции, которую сам же когда то вместе с Джонни Винтером и прокладывал средь бескрайних равнин техасщины, расширяя и углубляя тропинки блюзового Зверобоя и Следопыта - Алберта Коллинза.
В 1993г Дерринджер, после скитаний по музыкальным окресностям (от поп -музыки до джаза), вернулся в эти края и радостно гудит прохожим, оповещая блюзовую общественность о своём возвращении. Ни шагу в сторону от тяжёлого блюза, никаких пробуксовок или спотыканий. Уверенно и чётко едет в направлении "back to the blues".
Виртуозный гитаризм в охотку работающего с блюзовыми клише и соскучившегося по настоящей работе мастера - это тот случай, когда "прямолинейность" и "клише" не режут ухо, а греют душу, как неожиданная встреча со старинным приятелем. Все треки достойны похвалы, мои же личные фавориты - прифанкованная Crybaby и финальная песня Time to Go.
 
EAC extraction logfile from 13. April 2007, 20:54 for CDRick Derringer / Back To The Blues

Used drive : LITEON DVD-ROM LTD163 Adapter: 0 ID: 2Read mode : Secure with NO C2, accurate stream, disable cacheRead offset correction : 594Overread into Lead-In and Lead-Out : No

Used output format : Internal WAV Routines 44.100 Hz; 16 Bit; Stereo

Other options : Fill up missing offset samples with silence : Yes Delete leading and trailing silent blocks : No Native Win32 interface for Win NT & 2000

Track 1 Filename D:\Temp\01 - Trouble In Paradise.wav

Pre-gap length 0:00:02.00

Peak level 98.1 % Track quality 100.0 % Test CRC B095C5D2 Copy CRC B095C5D2 Copy OK

Track 2 Filename D:\Temp\02 - Blue Suede Blues.wav

Pre-gap length 0:00:01.89

Peak level 96.7 % Track quality 100.0 % Test CRC 2CFF18FE Copy CRC 2CFF18FE Copy OK

Track 3 Filename D:\Temp\03 - Blues All Night Long.wav

Pre-gap length 0:00:02.04

Peak level 93.2 % Track quality 100.0 % Test CRC 799F4FE7 Copy CRC 799F4FE7 Copy OK

Track 4 Filename D:\Temp\04 - Meantown Blues.wav

Pre-gap length 0:00:00.64

Peak level 96.7 % Track quality 100.0 % Test CRC B7ECAD96 Copy CRC B7ECAD96 Copy OK

Track 5 Filename D:\Temp\05 - Sorry For Your Heartache.wav

Pre-gap length 0:00:00.72

Peak level 87.5 % Track quality 100.0 % Test CRC 35C86ABC Copy CRC 35C86ABC Copy OK

Track 6 Filename D:\Temp\06 - Sink Or Swim.wav

Pre-gap length 0:00:01.61

Peak level 97.3 % Track quality 100.0 % Test CRC 5B9ACE65 Copy CRC 5B9ACE65 Copy OK

Track 7 Filename D:\Temp\07 - Diamond.wav

Pre-gap length 0:00:00.73

Peak level 98.3 % Track quality 100.0 % Test CRC 7D56EC3B Copy CRC 7D56EC3B Copy OK

Track 8 Filename D:\Temp\08 - Crybaby.wav

Pre-gap length 0:00:01.82

Peak level 92.1 % Track quality 99.9 % Test CRC F2A27A20 Copy CRC F2A27A20 Copy OK

Track 9 Filename D:\Temp\09 - Unsolved Mystery.wav

Peak level 97.2 % Track quality 100.0 % Test CRC 39AE53A6 Copy CRC 39AE53A6 Copy OK

Track 10 Filename D:\Temp\10 - Blue Velvet.wav

Pre-gap length 0:00:00.76

Peak level 94.3 % Track quality 100.0 % Test CRC B4681725 Copy CRC B4681725 Copy OK

Track 11 Filename D:\Temp\11 - Time To Go.wav

Peak level 95.4 % Track quality 100.0 % Test CRC 7D111AB0 Copy CRC 7D111AB0 Copy OK

No errors occured

End of status report
2616679450 54272444 01 - Trouble In Paradise.wav
4075524998 56182268 02 - Blue Suede Blues.wav
3741187405 86577164 03 - Blues All Night Long.wav
1302401123 43648460 04 - Meantown Blues.wav
3845912665 103810268 05 - Sorry For Your Heartache.wav
3375159383 53879660 06 - Sink Or Swim.wav
903799363 52842428 07 - Diamond.wav
3992463428 42465404 08 - Crybaby.wav
1891609979 52590764 09 - Unsolved Mystery.wav
697438010 46134524 10 - Blue Velvet.wav
297549744 62704364 11 - Time To Go.wav

auCDtect: CD records authenticity detector, version 0.8.2
Copyright (c) 2004 Oleg Berngardt. All rights reserved.
Copyright (c) 2004 Alexander Djourik. All rights reserved.
------------------------------------------------------------
Processing file: [01 - Trouble In Paradise.wav]

------------------------------------------------------------
This track looks like CDDA with probability 100%

------------------------------------------------------------
Processing file: [02 - Blue Suede Blues.wav]

------------------------------------------------------------
This track looks like CDDA with probability 99%

------------------------------------------------------------
Processing file: [03 - Blues All Night Long.wav]

------------------------------------------------------------
This track looks like CDDA with probability 100%

------------------------------------------------------------
Processing file: [04 - Meantown Blues.wav]

------------------------------------------------------------
This track looks like CDDA with probability 100%

------------------------------------------------------------
Processing file: [05 - Sorry For Your Heartache.wav]

------------------------------------------------------------
This track looks like CDDA with probability 100%

------------------------------------------------------------
Processing file: [06 - Sink Or Swim.wav]

------------------------------------------------------------
This track looks like CDDA with probability 100%

------------------------------------------------------------
Processing file: [07 - Diamond.wav]

------------------------------------------------------------
This track looks like CDDA with probability 100%

------------------------------------------------------------
Processing file: [08 - Crybaby.wav]

------------------------------------------------------------
This track looks like CDDA with probability 100%

------------------------------------------------------------
Processing file: [09 - Unsolved Mystery.wav]

------------------------------------------------------------
This track looks like CDDA with probability 100%

------------------------------------------------------------
Processing file: [10 - Blue Velvet.wav]

------------------------------------------------------------
This track looks like CDDA with probability 100%

------------------------------------------------------------
Processing file: [11 - Time To Go.wav]

------------------------------------------------------------
This track looks like CDDA with probability 100%

------------------------------------------------------------
Final Conclusion:
------------------------------------------------------------
These tracks looks like CDDA with probability 100%


Трекер:  [ 27-Янв-2012 17:58 ]

  

Скачать .torrent

Размер .torrent файла 20 KB


Размер: 468 MB
Хэш (hash) релиза: 250872bd430d13487b2edaeb5c57cdb9d469ad4c

Еще никто не оставлял запись к записи скачать торрент Rick Derringer - Back To The Blues - 1993, FLAC . Будь первым!

!Обратная связь