Скачать через торрент музыку Tinsley Ellis - Moment Of Truth - 2007 бесплатно без регистрации torrent

Если у вас наблюдаются проблемы со скриншотами, переходом по ссылками, скачиванием торрентов - проблемы в блокировщике рекламы AdBlock. #хорошегоДня!


Статистика раздачи
Размер:  404 MB   |    Зарегистрирован:  5 лет 8 месяцев   |    .torrent скачан:  34 раза   |   
Раздают:  1  
   
Загрузка...
 
Автор Сообщение

Umakiro

avatar Umakiro


Tinsley Ellis - Moment Of Truth

Жанр: Blues
Год выпуска: 2007
Формат: FLAC (image + .cue)
Битрейт аудио: lossless
Продолжительность: 59:00
Трэклист:
01. Say Too Much (5:54)
02. Somebody (3:44)
03. Get To The Bottom (5:07)
04. You're Gonna Thank Me (6:00)
05. Tell The Truth (4:18)
06. Too Much Of Everything (5:10)
07. Bringin' Home The Bacon (6:15)
08. Freeway Soul (4:09)
09. I Take What I Want (3:49)
10. Sleep On It (6:53)
11. Stare At The Sun (4:04)
12. Shadow Of Doubt (3:31)
Доп. информация:
Exact Audio Copy V0.99 prebeta 3 from 28. July 2007

Отчёт EAC об извлечении, выполненном 18. мая 2008, 23:24

Tinsley Ellis / Moment Of Truth

Дисковод: TOSHIBA DVD-ROM SD-M1712 Adapter: 0 ID: 3

Режим чтения : Достоверность
Использование точного потока : Да
Отключение кэша аудио : Да
Использование указателей C2 : Нет

Коррекция смещения при чтении : -472
Способность читать области Lead-in и Lead-out : Нет
Заполнение пропущенных сэмплов тишиной : Да
Удаление блоков с тишиной в начале и конце : Нет
При вычислениях CRC использовались нулевые сэмплы : Да
Интерфейс : Установленный внешний ASPI-интерфейс

Выходной формат : Пользовательский кодировщик
Выбранный битрейт : 768 kBit/s
Качество : Высокий
Добавление ID3-тэга : Нет
Утилита сжатия : C:\Program Files\Exact Audio Copy\FLAC\FLAC.EXE
Дополнительные параметры : -6 -V -T "ARTIST=%a" -T "TITLE=%t" -T "ALBUM=%g" -T "DATE=%y" -T "TRACKNUMBER=%n" -T "GENRE=%m" -T "COMMENT=%e" %s -o %d

TOC извлечённого CD

Трек | Старт | Длительность | Начальный сектор | Конечный сектор
---------------------------------------------------------------------
1 | 0:00.00 | 5:54.61 | 0 | 26610
2 | 5:54.61 | 3:44.22 | 26611 | 43432
3 | 9:39.08 | 5:07.47 | 43433 | 66504
4 | 14:46.55 | 6:00.16 | 66505 | 93520
5 | 20:46.71 | 4:18.53 | 93521 | 112923
6 | 25:05.49 | 5:10.01 | 112924 | 136174
7 | 30:15.50 | 6:15.58 | 136175 | 164357
8 | 36:31.33 | 4:09.66 | 164358 | 183098
9 | 40:41.24 | 3:49.43 | 183099 | 200316
10 | 44:30.67 | 6:53.48 | 200317 | 231339
11 | 51:24.40 | 4:04.48 | 231340 | 249687
12 | 55:29.13 | 3:31.00 | 249688 | 265512

Характеристики диапазона извлечения и сообщения об ошибках

Выбранный диапазон

Имя файла G:\My Docs 2\My Music 2\_Svetlov_D\Tinsley Ellis - Moment Of Truth\Tinsley Ellis - Moment Of Truth.wav

Пиковый уровень 96.6 %
Качество диапазона 99.9 %
CRC копии 65BB874F
Копирование... OK

Ошибок не произошло

Конец отчёта


Трекер:  [ 27-Янв-2012 17:57 ]

  

Скачать .torrent

Размер .torrent файла 16 KB


Размер: 404 MB
Хэш (hash) релиза: f4e63159dbccb6437859770dd6b813d6dc89db4d

Еще никто не оставлял запись к записи скачать торрент Tinsley Ellis - Moment Of Truth - 2007 . Будь первым!

!Обратная связь