Скачать через торрент музыку Glenn Kaiser - You Made The Difference In Me - 1998, FLAC бесплатно без регистрации torrent

Если у вас наблюдаются проблемы со скриншотами, переходом по ссылками, скачиванием торрентов - проблемы в блокировщике рекламы AdBlock. #хорошегоДня!


Статистика раздачи
Размер:  355 MB   |    Зарегистрирован:  5 лет 8 месяцев   |    .torrent скачан:  31 раз   |   
Раздают:  1  
   
Загрузка...
 
Автор Сообщение

Umakiro

avatar Umakiro


Glenn Kaiser - You Made The Difference In Me

Жанр: Gospel-Rock
Дата выхода диска: 1998
Лейбл: Grrr Records 73521
Тип рипа: FLAC, tracks+.cue, lossless
Продолжительность: 50'34''
Сканы в раздаче: отсутствуют

1. More and More (3:21)
2. Diggin' My Own Grave (5:15)
3. Evidence (3:25)
4. Faith, Hope, and Love (4:41)
5. Troubled World (4:28)
6. Self-Control (3:59)
7. Wind Me Up (3:46)
8. Marry Me (4:49)
9. Nothin' But Love (3:46)
10. I Would Choose You (3:48)
11. You Make Me Happy (4:55)
12. It's a Beacutiful Thing (4:15)

Source: wata -- Author: Timodeath

...госпеловская сторона творчества неистового пастора
 
Exact Audio Copy V1.0 beta 2 from 29. April 2011

EAC extraction logfile from 23. June 2011, 16:01

Glenn Kaiser / You Made The Difference In Me

Used drive : SONY DVD RW DRU-830A Adapter: 1 ID: 0

Read mode : SecureUtilize accurate stream : YesDefeat audio cache : YesMake use of C2 pointers : No

Read offset correction : 6Overread into Lead-In and Lead-Out : NoFill up missing offset samples with silence : YesDelete leading and trailing silent blocks : NoNull samples used in CRC calculations : YesUsed interface : Native Win32 interface for Win NT & 2000Gap handling : Appended to previous track

Used output format : User Defined EncoderSelected bitrate : 896 kBit/sQuality : HighAdd ID3 tag : NoCommand line compressor : C:\Program Files\Exact Audio Copy\Flac\flac.exeAdditional command line options : -8 -V -T "ARTIST=%artist%" -T "TITLE=%title%" -T "ALBUM=%albumtitle%" -T "DATE=%year%" -T "TRACKNUMBER=%tracknr%" -T "GENRE=%genre%" -T "PERFORMER=%albuminterpret%" -T "COMPOSER=%composer%" %haslyrics%--tag-from-file=LYRICS

TOC of the extracted CD

Track | Start | Length | Start sector | End sector --------------------------------------------------------- 1 | 0:00.00 | 3:21.60 | 0 | 15134 2 | 3:21.60 | 5:15.45 | 15135 | 38804 3 | 8:37.30 | 3:25.52 | 38805 | 54231 4 | 12:03.07 | 4:41.15 | 54232 | 75321 5 | 16:44.22 | 4:28.48 | 75322 | 95469 6 | 21:12.70 | 3:59.07 | 95470 | 113401 7 | 25:12.02 | 3:46.15 | 113402 | 130366 8 | 28:58.17 | 4:49.15 | 130367 | 152056 9 | 33:47.32 | 3:46.70 | 152057 | 169076 10 | 37:34.27 | 3:48.38 | 169077 | 186214 11 | 41:22.65 | 4:55.55 | 186215 | 208394 12 | 46:18.45 | 4:15.50 | 208395 | 227569

Track 1

Filename L:\Torrent Folder\Current Torrents\Glenn Kaiser\01 More and More.wav

Pre-gap length 0:00:02.00

Peak level 95.5 % Extraction speed 4.3 X Track quality 100.0 % Test CRC 6BE8B2D4 Copy CRC 6BE8B2D4 Cannot be verified as accurate (confidence 3) [D48F6EA6], AccurateRip returned [69BFAFC0] (AR v2) Copy OK

Track 2

Filename L:\Torrent Folder\Current Torrents\Glenn Kaiser\02 Diggin' My Own Grave.wav

Pre-gap length 0:00:01.70

Peak level 96.2 % Extraction speed 5.1 X Track quality 100.0 % Test CRC D0A6AEFB Copy CRC D0A6AEFB Cannot be verified as accurate (confidence 3) [EBE46A44], AccurateRip returned [F4C2EC5D] (AR v2) Copy OK

Track 3

Filename L:\Torrent Folder\Current Torrents\Glenn Kaiser\03 Evidence.wav

Pre-gap length 0:00:01.64

Peak level 95.2 % Extraction speed 5.3 X Track quality 100.0 % Test CRC 67BEAF77 Copy CRC 67BEAF77 Cannot be verified as accurate (confidence 3) [C79386B6], AccurateRip returned [2355D74D] (AR v2) Copy OK

Track 4

Filename L:\Torrent Folder\Current Torrents\Glenn Kaiser\04 Faith, Hope, and Love.wav

Pre-gap length 0:00:01.26

Peak level 98.5 % Extraction speed 5.3 X Track quality 99.9 % Test CRC 6F58E0B7 Copy CRC 6F58E0B7 Cannot be verified as accurate (confidence 3) [F7E77A56], AccurateRip returned [A6EABFCF] (AR v2) Copy OK

Track 5

Filename L:\Torrent Folder\Current Torrents\Glenn Kaiser\05 Troubled World.wav

Pre-gap length 0:00:02.16

Peak level 97.6 % Extraction speed 6.2 X Track quality 100.0 % Test CRC 980B3419 Copy CRC 980B3419 Cannot be verified as accurate (confidence 3) [BEB9F75E], AccurateRip returned [4EB26AD4] (AR v2) Copy OK

Track 6

Filename L:\Torrent Folder\Current Torrents\Glenn Kaiser\06 Self-Control.wav

Pre-gap length 0:00:00.97

Peak level 97.6 % Extraction speed 6.5 X Track quality 100.0 % Test CRC A0B4F30D Copy CRC A0B4F30D Cannot be verified as accurate (confidence 3) [4416D985], AccurateRip returned [A43E1382] (AR v2) Copy OK

Track 7

Filename L:\Torrent Folder\Current Torrents\Glenn Kaiser\07 Wind Me Up.wav

Pre-gap length 0:00:00.02

Peak level 97.2 % Extraction speed 6.4 X Track quality 100.0 % Test CRC 1E37B68A Copy CRC 1E37B68A Cannot be verified as accurate (confidence 3) [730D744F], AccurateRip returned [D51FAE35] (AR v2) Copy OK

Track 8

Filename L:\Torrent Folder\Current Torrents\Glenn Kaiser\08 Marry Me.wav

Pre-gap length 0:00:01.22

Peak level 97.6 % Extraction speed 7.2 X Track quality 100.0 % Test CRC F5D5FD89 Copy CRC F5D5FD89 Cannot be verified as accurate (confidence 3) [B949B73D], AccurateRip returned [28AABD0F] (AR v2) Copy OK

Track 9

Filename L:\Torrent Folder\Current Torrents\Glenn Kaiser\09 Nothin' but Love.wav

Pre-gap length 0:00:00.09

Peak level 97.4 % Extraction speed 7.3 X Track quality 100.0 % Test CRC 59E33FEC Copy CRC 59E33FEC Cannot be verified as accurate (confidence 3) [C7461697], AccurateRip returned [E5A30EA4] (AR v2) Copy OK

Track 10

Filename L:\Torrent Folder\Current Torrents\Glenn Kaiser\10 I Would Choose You.wav

Pre-gap length 0:00:00.66

Peak level 97.5 % Extraction speed 7.5 X Track quality 100.0 % Test CRC F49A1D14 Copy CRC F49A1D14 Cannot be verified as accurate (confidence 3) [A37AF60F], AccurateRip returned [A10E11BA] (AR v2) Copy OK

Track 11

Filename L:\Torrent Folder\Current Torrents\Glenn Kaiser\11 You Make Me Happy.wav

Pre-gap length 0:00:01.00

Peak level 97.6 % Extraction speed 8.1 X Track quality 100.0 % Test CRC 5453F9A4 Copy CRC 5453F9A4 Cannot be verified as accurate (confidence 3) [107EB5A4], AccurateRip returned [C9F13124] (AR v2) Copy OK

Track 12

Filename L:\Torrent Folder\Current Torrents\Glenn Kaiser\12 It's a Beautiful Thing.wav

Pre-gap length 0:00:01.06

Peak level 97.6 % Extraction speed 7.3 X Track quality 99.9 % Test CRC 3B717386 Copy CRC 3B717386 Cannot be verified as accurate (confidence 3) [F2DB3705], AccurateRip returned [C5019738] (AR v2) Copy OK

No tracks could be verified as accurateYou may have a different pressing from the one(s) in the database

No errors occurred

End of status report

==== Log checksum 0102D9BB7FEFDA0FDE04BE109BD91E9604D914E70C7A3E4C420C9F6C0468BDED ====
 
REM GENRE GospelREM DATE 1998REM DISCID 8F0BDA0CREM COMMENT "ExactAudioCopy v1.0b2"PERFORMER "Glenn Kaiser"TITLE "You Made The Difference In Me"FILE "01 More and More.wav" WAVE TRACK 01 AUDIO TITLE "More and More" PERFORMER "Glenn Kaiser" INDEX 01 00:00:00 TRACK 02 AUDIO TITLE "Diggin' My Own Grave" PERFORMER "Glenn Kaiser" INDEX 00 03:20:07FILE "02 Diggin' My Own Grave.wav" WAVE INDEX 01 00:00:00 TRACK 03 AUDIO TITLE "Evidence" PERFORMER "Glenn Kaiser" INDEX 00 05:13:72FILE "03 Evidence.wav" WAVE INDEX 01 00:00:00 TRACK 04 AUDIO TITLE "Faith, Hope, and Love" PERFORMER "Glenn Kaiser" INDEX 00 03:24:32FILE "04 Faith, Hope, and Love.wav" WAVE INDEX 01 00:00:00 TRACK 05 AUDIO TITLE "Troubled World" PERFORMER "Glenn Kaiser" INDEX 00 04:39:03FILE "05 Troubled World.wav" WAVE INDEX 01 00:00:00 TRACK 06 AUDIO TITLE "Self-Control" PERFORMER "Glenn Kaiser" INDEX 00 04:27:50FILE "06 Self-Control.wav" WAVE INDEX 01 00:00:00 TRACK 07 AUDIO TITLE "Wind Me Up" PERFORMER "Glenn Kaiser" INDEX 00 03:59:05FILE "07 Wind Me Up.wav" WAVE INDEX 01 00:00:00 TRACK 08 AUDIO TITLE "Marry Me" PERFORMER "Glenn Kaiser" INDEX 00 03:44:73FILE "08 Marry Me.wav" WAVE INDEX 01 00:00:00 TRACK 09 AUDIO TITLE "Nothin' but Love" PERFORMER "Glenn Kaiser" INDEX 00 04:49:08FILE "09 Nothin' but Love.wav" WAVE INDEX 01 00:00:00 TRACK 10 AUDIO TITLE "I Would Choose You" PERFORMER "Glenn Kaiser" INDEX 00 03:46:20FILE "10 I Would Choose You.wav" WAVE INDEX 01 00:00:00 TRACK 11 AUDIO TITLE "You Make Me Happy" PERFORMER "Glenn Kaiser" INDEX 00 03:47:38FILE "11 You Make Me Happy.wav" WAVE INDEX 01 00:00:00 TRACK 12 AUDIO TITLE "It's a Beautiful Thing" PERFORMER "Glenn Kaiser" INDEX 00 04:54:50FILE "12 It's a Beautiful Thing.wav" WAVE INDEX 01 00:00:00
 
-----------------------

DON'T MODIFY THIS FILE

-----------------------

PERFORMER: auCDtect Task Manager, ver. 1.5.1RC3 build 1.5.1.4Copyright (c) 2008-2010 y-soft. All rights reservedhttp://y-soft.org

ANALYZER: auCDtect: CD records authenticity detector, version 0.8.2Copyright (c) 2004 Oleg Berngardt. All rights reserved.Copyright (c) 2004 Alexander Djourik. All rights reserved.

FILE: 12 It's a Beautiful Thing.flac Size: 31298218 Hash: 15DC5B82DABB5AB106486EF1F771456C Accuracy: -m8 Conclusion: CDDA 100% Signature: 84A762319131438927CB687961EE590E9274518DFILE: 11 You Make Me Happy.flac Size: 34341001 Hash: BAC3249EBC8675945A7D923879FC8288 Accuracy: -m8 Conclusion: CDDA 100% Signature: 579BAE24F47E865C05BED8A4900DC70195246FE7FILE: 10 I Would Choose You.flac Size: 27451720 Hash: 2F5E4525CB06A26CC6A4C9033E0176A6 Accuracy: -m8 Conclusion: CDDA 100% Signature: F86AACE3D017C97F77E3F462122EED6E7CB7EABBFILE: 09 Nothin' but Love.flac Size: 29480209 Hash: 3121D618B0CB8517AC1C6B7B6610D035 Accuracy: -m8 Conclusion: CDDA 100% Signature: 12ED45A183B6AC8A324FBF3C0F4A0945AE5394CAFILE: 08 Marry Me.flac Size: 32799931 Hash: 546A6DD494D70F637922231D4405E81B Accuracy: -m8 Conclusion: CDDA 100% Signature: 5B902248866EA7D2DA8DA2CCD77BEDD09742553CFILE: 07 Wind Me Up.flac Size: 29252558 Hash: E35F61A673491B75A51752715C3D1C37 Accuracy: -m8 Conclusion: CDDA 99% Signature: F9175E6A04BA925A303E9CB4F56E8F2D5C6796EFFILE: 06 Self-Control.flac Size: 30551045 Hash: FB92512A9F62653D9711BDDEC476C1E4 Accuracy: -m8 Conclusion: CDDA 100% Signature: AAD7DF911F400F14FD3B8283FD41BA34C6CC28B6FILE: 05 Troubled World.flac Size: 29971148 Hash: 6246070CF1CD81BFB0A8C5EF0725E28E Accuracy: -m8 Conclusion: CDDA 100% Signature: 0E3B16D957A79E2CB2918F96E9DDE80C7026E9DBFILE: 04 Faith, Hope, and Love.flac Size: 35874239 Hash: FBE6549A0968081EEDE2F9CC32BF7C30 Accuracy: -m8 Conclusion: CDDA 100% Signature: 220CB871D7973F3531A0358FDB56AF9BB32121C1FILE: 03 Evidence.flac Size: 26840103 Hash: 6B37275D5711B8CB3EA9CFBB7561FA6C Accuracy: -m8 Conclusion: CDDA 100% Signature: F6644740CA1D3AC3030E9B30996D5F2483372900FILE: 02 Diggin' My Own Grave.flac Size: 40236129 Hash: 5BA06301987A802521EF8224D052EEE3 Accuracy: -m8 Conclusion: CDDA 100% Signature: 6E0DFF8E93FACB5DA5E229C93BF2ED56B6A3D52EFILE: 01 More and More.flac Size: 24159325 Hash: 2FF3150A6E4EA0521799FC26B332A50E Accuracy: -m8 Conclusion: CDDA 100% Signature: F3F4B246A81531B6A83370B90696DE0586C3AE30


Трекер:  [ 27-Янв-2012 17:54 ]

  

Скачать .torrent

Размер .torrent файла 15 KB


Размер: 355 MB
Хэш (hash) релиза: 66465bbdb99d11e10770bfb53a988776809c8a16

Еще никто не оставлял запись к записи скачать торрент Glenn Kaiser - You Made The Difference In Me - 1998, FLAC . Будь первым!

!Обратная связь