Скачать через торрент музыку Glenn Kaiser Band - Blacktop - 2003, FLAC бесплатно без регистрации torrent

Если у вас наблюдаются проблемы со скриншотами, переходом по ссылками, скачиванием торрентов - проблемы в блокировщике рекламы AdBlock. #хорошегоДня!


Статистика раздачи
Размер:  326 MB   |    Зарегистрирован:  5 лет 8 месяцев   |    .torrent скачан:  35 раз   |   
Раздают:  1  
   
Загрузка...
 
Автор Сообщение

Umakiro

avatar Umakiro


Glenn Kaiser Band - Blacktop

Жанр: Blues-Rock
Год выпуска диска: 2003
Лейбл: Grrr Records GRD3542
Тип рипа: FLAC, image+.cue, lossless
Продолжительность: 47'03''

1. Blacktop [4:22]
2. Useless Man [4:45]
3. Save Me From Myself [3:53]
4. Voice In The Wind [4:53]
5. Got Everything [3:28]
6. Full Time Love [3:22]
7. Bottle Down [4:06]
8. Whisper [4:01]
9. Got No Opinion [2:48]
10. Used To Be [4:12]
11. Price Of Peace [2:40]
12. Facin' The Music [4:07]

Glenn Kaiser - guitar, vocal, harmonica
Roy "Big Muff" Montroy - bass
Ed "The Drive" Bialach - drums
Rick Derringer - guitar on #3
Dave Beegle - guitar on #6
Chris Cameron - keyboards on #4
Exact Audio Copy V0.99 prebeta 4 from 23. January 2008

Отчёт EAC об извлечении, выполненном 7. декабря 2009, 12:27

Glenn Kaiser Band / Blacktop

Дисковод: PLEXTOR CD-R PX-W5224A Adapter: 0 ID: 1

Режим чтения : Достоверность
Использование точного потока : Да
Отключение кэша аудио : Да
Использование указателей C2 : Нет

Коррекция смещения при чтении : 30
Способность читать области Lead-in и Lead-out : Нет
Заполнение пропущенных сэмплов тишиной : Да
Удаление блоков с тишиной в начале и конце : Нет
При вычислениях CRC использовались нулевые сэмплы : Да
Интерфейс : Установленный внешний ASPI-интерфейс

Выходной формат : Пользовательский кодировщик
Выбранный битрейт : 768 kBit/s
Качество : Высокий
Добавление ID3-тэга : Нет
Утилита сжатия : C:\Program Files\Exact Audio Copy\Flac\flac.exe
Дополнительные параметры : -8 -V -T "ARTIST=%a" -T "TITLE=%t" -T "ALBUM=%g" -T "DATE=%y" -T "TRACKNUMBER=%n" -T "GENRE=%m" -T "COMMENT=www.blues.at.ua" -T "URL=www.blues.at.ua" %s

TOC извлечённого CD

Трек | Старт | Длительность | Начальный сектор | Конечный сектор
---------------------------------------------------------------------
1 | 0:00.00 | 4:23.70 | 0 | 19794
2 | 4:23.70 | 4:47.67 | 19795 | 41386
3 | 9:11.62 | 3:54.70 | 41387 | 59006
4 | 13:06.57 | 4:55.45 | 59007 | 81176
5 | 18:02.27 | 3:30.55 | 81177 | 96981
6 | 21:33.07 | 3:24.25 | 96982 | 112306
7 | 24:57.32 | 4:08.53 | 112307 | 130959
8 | 29:06.10 | 4:03.40 | 130960 | 149224
9 | 33:09.50 | 2:50.17 | 149225 | 161991
10 | 35:59.67 | 4:14.15 | 161992 | 181056
11 | 40:14.07 | 2:42.30 | 181057 | 193236
12 | 42:56.37 | 4:07.32 | 193237 | 211793

Характеристики диапазона извлечения и сообщения об ошибках

Выбранный диапазон

Имя файла D:\My MusicLarry\Glenn Kaiser Band - Blacktop\Glenn Kaiser Band - Blacktop.wav

Пиковый уровень 98.9 %
Качество диапазона 100.0 %
CRC копии 8430F2E3
Копирование... OK

Ошибок не произошло

Конец отчёта
-----------------------

DON'T MODIFY THIS FILE

-----------------------

PERFORMER: auCDtect Task Manager, ver. 1.0.3 B1 build 1.0.3.0
Copyright (c) 2008, 2009 y-soft. All rights reserved
http://y-soft.110mb.com

ANALYZER: auCDtect: CD records authenticity detector, version 0.8.2
Copyright (c) 2004 Oleg Berngardt. All rights reserved.
Copyright (c) 2004 Alexander Djourik. All rights reserved.

FILE: Glenn Kaiser Band - Blacktop.flac
Size: 334151281 Hash: 55F7841EF23DAC93257412D7EAB93C89 Accuracy: -m0
Conclusion: CDDA 100%
Signature: 621909F94758EEB609A69B3C6BAD49346DC937F1


Трекер:  [ 27-Янв-2012 17:53 ]

  

Скачать .torrent

Размер .torrent файла 13 KB


Размер: 326 MB
Хэш (hash) релиза: d02ea0bed7e1daa9e3c99d1a6821809c423b7972

Еще никто не оставлял запись к записи скачать торрент Glenn Kaiser Band - Blacktop - 2003, FLAC . Будь первым!

!Обратная связь