Скачать через торрент музыку Glenn Kaiser Band - Carolina Moon - 2001, APE бесплатно без регистрации torrent

Если у вас наблюдаются проблемы со скриншотами, переходом по ссылками, скачиванием торрентов - проблемы в блокировщике рекламы AdBlock. #хорошегоДня!


Статистика раздачи
Размер:  361 MB   |    Зарегистрирован:  5 лет 8 месяцев   |    .torrent скачан:  40 раз   |   
Раздают:  1  
   
Загрузка...
 
Автор Сообщение

Umakiro

avatar Umakiro


Glenn Kaiser Band - Carolina Moon

Жанр: Blues/Rock
Год выпуска диска: 2001
Аудио кодек: APE
Тип рипа: image+.cue
Битрейт аудио: lossless
Продолжительность: 49:29
Трэклист:
01. Torch [0:03:52.56]
02. Out Cold [0:05:11.66]
03. Mercy [0:05:41.33]
04. Carolina Moon [0:04:41.13]
05. Gonna Meet You At The Station [0:05:12.20]
06. Changin' Wind [0:03:12.46]
07. Country Mile [0:02:54.33]
08. Storm [0:03:37.26]
09. Fuss & Moan [0:04:03.70]
10. Grinder [0:02:48.42]
11. I Forgive You [0:03:41.53]
12. Rooster Crow [0:04:32.10]
Exact Audio Copy V0.99 prebeta 4 from 23. January 2008

Отчёт EAC об извлечении, выполненном 11. ноября 2009, 0:26

Glenn Kaiser Band / Carolina Moon

Дисковод: PLEXTOR DVDR PX-820A Adapter: 3 ID: 1

Режим чтения : Достоверность
Использование точного потока : Да
Отключение кэша аудио : Да
Использование указателей C2 : Нет

Коррекция смещения при чтении : 48
Способность читать области Lead-in и Lead-out : Нет
Заполнение пропущенных сэмплов тишиной : Да
Удаление блоков с тишиной в начале и конце : Нет
При вычислениях CRC использовались нулевые сэмплы : Да
Интерфейс : Встроенный Win32-интерфейс для Win NT/2000

Выходной формат : Внутренние WAV-операции
Формат сэмплов : 44.100 Гц; 16 бит; стерео

TOC извлечённого CD

Трек | Старт | Длительность | Начальный сектор | Конечный сектор
---------------------------------------------------------------------
1 | 0:00.00 | 3:52.42 | 0 | 17441
2 | 3:52.42 | 5:11.50 | 17442 | 40816
3 | 9:04.17 | 5:41.25 | 40817 | 66416
4 | 14:45.42 | 4:41.10 | 66417 | 87501
5 | 19:26.52 | 5:12.15 | 87502 | 110916
6 | 24:38.67 | 3:12.35 | 110917 | 125351
7 | 27:51.27 | 2:54.25 | 125352 | 138426
8 | 30:45.52 | 3:37.20 | 138427 | 154721
9 | 34:22.72 | 4:03.53 | 154722 | 172999
10 | 38:26.50 | 2:48.32 | 173000 | 185631
11 | 41:15.07 | 3:41.40 | 185632 | 202246
12 | 44:56.47 | 4:32.08 | 202247 | 222654

Характеристики диапазона извлечения и сообщения об ошибках

Выбранный диапазон

Имя файла D:\Муз раздача 1\GLENN KAISER BAND\Glenn Kaiser Band - Carolina Moon.wav

Пиковый уровень 100.0 %
Качество диапазона 99.9 %
CRC копии F3984655
Копирование... OK

Ошибок не произошло

AccurateRip: сводка

Трек 1 нет в базе данных
Трек 2 нет в базе данных
Трек 3 нет в базе данных
Трек 4 нет в базе данных
Трек 5 нет в базе данных
Трек 6 нет в базе данных
Трек 7 нет в базе данных
Трек 8 нет в базе данных
Трек 9 нет в базе данных
Трек 10 нет в базе данных
Трек 11 нет в базе данных
Трек 12 нет в базе данных

Ни одного трека нет в базе AccurateRip

Конец отчёта
Рип с оригинала

Трекер:  [ 27-Янв-2012 17:52 ]

  

Скачать .torrent

Размер .torrent файла 30 KB


Размер: 361 MB
Хэш (hash) релиза: 143199c2564cf291c8fb9d24c26661815bdf9bd5

Еще никто не оставлял запись к записи скачать торрент Glenn Kaiser Band - Carolina Moon - 2001, APE . Будь первым!

!Обратная связь