Скачать через торрент музыку Glenn Kaiser Band - Octane - 2008, APE бесплатно без регистрации torrent

Если у вас наблюдаются проблемы со скриншотами, переходом по ссылками, скачиванием торрентов - проблемы в блокировщике рекламы AdBlock. #хорошегоДня!


Статистика раздачи
Размер:  291 MB   |    Зарегистрирован:  5 лет 8 месяцев   |    .torrent скачан:  35 раз   |   
Раздают:  1  
   
Загрузка...
 
Автор Сообщение

Umakiro

avatar Umakiro


Glenn Kaiser Band - Octane

Жанр: Blues Rock
Год выпуска диска: 2008
Производитель диска: Grrr records
Аудио кодек: APE
Тип рипа: image+.cue
Битрейт аудио: lossless
Продолжительность: 45:43
Трэклист:
1.Broken Love
2.Streetcorner Blues
3.Roller Coaster
4.Depends On Where You Stand
5.Bad Times
6.What Can Be Shaken
7.Higher Ground
8.U-Turn
9.Stand By The Window
10.Trouble High Trouble Low
11.Thick And Thin
12.Young Man Blues
13.This Race

Glenn Kaiser - Vocals, Guitar, Harp
Roy Montroy - Bass
Ed Bialach - Drums
Доп. информация: Спасибо hourglass.
Exact Audio Copy V0.99 prebeta 4 from 23. January 2008

Отчёт EAC об извлечении, выполненном 14. января 2010, 11:13

Glenn Kaiser Band / Octane

Дисковод: PIONEER DVD-RW DVR-112D Adapter: 1 ID: 1

Режим чтения : Достоверность
Использование точного потока : Да
Отключение кэша аудио : Да
Использование указателей C2 : Нет

Коррекция смещения при чтении : 48
Способность читать области Lead-in и Lead-out : Нет
Заполнение пропущенных сэмплов тишиной : Да
Удаление блоков с тишиной в начале и конце : Нет
При вычислениях CRC использовались нулевые сэмплы : Нет
Интерфейс : Встроенный Win32-интерфейс для Win NT/2000

Выходной формат : Monkey's Audio (без потерь)
Выбранный битрейт : High Lossless Compression
Качество : Высокий
Добавление ID3-тэга : Да
Утилита сжатия : D:\Music Programs\Monkey's Audio\Mac.exe

TOC извлечённого CD

Трек | Старт | Длительность | Начальный сектор | Конечный сектор
---------------------------------------------------------------------
1 | 0:00.00 | 3:35.36 | 0 | 16160
2 | 3:35.36 | 3:51.03 | 16161 | 33488
3 | 7:26.39 | 3:00.21 | 33489 | 47009
4 | 10:26.60 | 3:39.65 | 47010 | 63499
5 | 14:06.50 | 2:43.33 | 63500 | 75757
6 | 16:50.08 | 4:00.54 | 75758 | 93811
7 | 20:50.62 | 4:29.09 | 93812 | 113995
8 | 25:19.71 | 2:20.15 | 113996 | 124510
9 | 27:40.11 | 3:27.46 | 124511 | 140081
10 | 31:07.57 | 4:22.62 | 140082 | 159793
11 | 35:30.44 | 3:15.02 | 159794 | 174420
12 | 38:45.46 | 3:21.60 | 174421 | 189555
13 | 42:07.31 | 3:35.74 | 189556 | 205754

Характеристики диапазона извлечения и сообщения об ошибках

Выбранный диапазон

Имя файла G:\Rip\GKB-2008\Glenn Kaiser Band - Octane.wav

Пиковый уровень 99.8 %
Качество диапазона 100.0 %
CRC копии E9E0E198
Копирование... OK

Ошибок не произошло

Конец отчёта
-----------------------

DON'T MODIFY THIS FILE

-----------------------

PERFORMER: auCDtect Task Manager, ver. 1.0.3 B1 build 1.0.3.0
Copyright (c) 2008, 2009 y-soft. All rights reserved
http://y-soft.110mb.com

ANALYZER: auCDtect: CD records authenticity detector, version 0.8.2
Copyright (c) 2004 Oleg Berngardt. All rights reserved.
Copyright (c) 2004 Alexander Djourik. All rights reserved.

FILE: Glenn Kaiser Band - Octane.ape
Size: 301734444 Hash: EE5A45CDB37B59DC71FAE72030DE7ACE Accuracy: -m0
Conclusion: CDDA 100%
Signature: 62C95D86E6C97C9922788F711184BA89AB4CA139


Трекер:  [ 27-Янв-2012 17:52 ]

  

Скачать .torrent

Размер .torrent файла 12 KB


Размер: 291 MB
Хэш (hash) релиза: a9d9f9a7986e51175a353bb41ccf7fa52d203072

Еще никто не оставлял запись к записи скачать торрент Glenn Kaiser Band - Octane - 2008, APE . Будь первым!

!Обратная связь