Скачать через торрент музыку Glenn Kaiser - Spontaneous Combustion - 1994, FLAC бесплатно без регистрации torrent

Если у вас наблюдаются проблемы со скриншотами, переходом по ссылками, скачиванием торрентов - проблемы в блокировщике рекламы AdBlock. #хорошегоДня!


Статистика раздачи
Размер:  375 MB   |    Зарегистрирован:  5 лет 8 месяцев   |    .torrent скачан:  33 раза   |   
Раздают:  1  
   
Загрузка...
 
Автор Сообщение

Umakiro

avatar Umakiro


Glenn Kaiser - Spontaneous Combustion

Жанр: Blues, Blues-Rock
Дата выхода диска: 01 June 1994
Лейбл: Grrr Records GHCD 7012
Тип рипа: FLAC, tracks+.cue, lossless
Продолжительность: 59'34''
Сканы в раздаче: booklet, tray

01. Everybody Understands The Blues (03:14)
02. Trouble (04:24)
03. Through The Night (04:26)
04. Queen Bee (06:14)
05. Shufflin' The Deck (04:00)
06. If I Leave This World Tomorrow (07:13)
07. Ain't Much Difference (02:51)
08. Got A Hold On You (05:17)
09. Where Would I Be (06:05)
10. Jump Start (02:45)
11. Queen Of My Heart (05:19)
12. Satellite Dish (02:23)
13. Spontaneous Combustion (05:02)

Source: wata -- Author: williamsjoes
 
X Lossless Decoder version 20111113 (137.1)

XLD extraction logfile from 2011-11-23 09:30:54 +0000

Glenn Kaiser / Spontaneous Combustion

Used drive : MATSHITA DVD-R UJ-898 (revision HE13)

Ripper mode : XLD Secure RipperDisable audio cache : OK for the drive with a cache less than 1375KiBMake use of C2 pointers : NORead offset correction : 102Max retry count : 20Gap status : Analyzed, Appended (except HTOA)

TOC of the extracted CD Track | Start | Length | Start sector | End sector --------------------------------------------------------- 1 | 00:00:32 | 03:15:63 | 32 | 14719 2 | 03:16:20 | 04:24:12 | 14720 | 34531 3 | 07:40:32 | 04:46:25 | 34532 | 56006 4 | 12:26:57 | 06:14:13 | 56007 | 84069 5 | 18:40:70 | 04:00:50 | 84070 | 102119 6 | 22:41:45 | 07:12:00 | 102120 | 134519 7 | 29:53:45 | 02:51:12 | 134520 | 147356 8 | 32:44:57 | 05:18:00 | 147357 | 171206 9 | 38:02:57 | 06:02:63 | 171207 | 198419 10 | 44:05:45 | 02:44:00 | 198420 | 210719 11 | 46:49:45 | 05:19:50 | 210720 | 234694 12 | 52:09:20 | 02:22:62 | 234695 | 245406 13 | 54:32:07 | 05:01:68 | 245407 | 268049

List of alternate offset correction values # | Absolute | Relative | Confidence ------------------------------------------ 1 | 216 | 114 | 3

AccurateRip Summary Track 01 : OK (confidence 3, with different offset) Track 02 : OK (confidence 3, with different offset) Track 03 : OK (confidence 3, with different offset) Track 04 : OK (confidence 3, with different offset) Track 05 : OK (confidence 3, with different offset) Track 06 : OK (confidence 3, with different offset) Track 07 : OK (confidence 3, with different offset) Track 08 : OK (confidence 3, with different offset) Track 09 : OK (confidence 3, with different offset) Track 10 : OK (confidence 3, with different offset) Track 11 : OK (confidence 3, with different offset) Track 12 : OK (confidence 3, with different offset) Track 13 : OK (confidence 3, with different offset) ->All tracks accurately ripped.

All Tracks Album gain : -5.44 dB Peak : 0.984375 Statistics Read error : 0 Jitter error (maybe fixed) : 0 Retry sector count : 0 Damaged sector count : 0

Track 01 Filename : /Users/andre/Music/Glenn Kaiser - 1994 - Spontaneous Combustion [FLAC]/01 Everybody Understands the Blues.flac Pre-gap length : 00:02:32

Track gain : -5.19 dB Peak : 0.973755 CRC32 hash (test run) : B543DBFA CRC32 hash : B543DBFA CRC32 hash (skip zero) : 8A741353 AccurateRip signature : 6A87DA43 ->Accurately ripped! (confidence 3) (matched with the different offset correction value; calculated using an additional offset of 114; the signature after correction is: 52B4DF41) Statistics Read error : 0 Jitter error (maybe fixed) : 0 Retry sector count : 0 Damaged sector count : 0

Track 02 Filename : /Users/andre/Music/Glenn Kaiser - 1994 - Spontaneous Combustion [FLAC]/02 Trouble.flac Pre-gap length : 00:01:43

Track gain : -6.39 dB Peak : 0.977722 CRC32 hash (test run) : 4D8E43B0 CRC32 hash : 4D8E43B0 CRC32 hash (skip zero) : 7C1577FF AccurateRip signature : 0D69846C ->Accurately ripped! (confidence 3) (matched with the different offset correction value; calculated using an additional offset of 114; the signature after correction is: B5333866) Statistics Read error : 0 Jitter error (maybe fixed) : 0 Retry sector count : 0 Damaged sector count : 0

Track 03 Filename : /Users/andre/Music/Glenn Kaiser - 1994 - Spontaneous Combustion [FLAC]/03 Through the Night.flac Pre-gap length : 00:01:32

Track gain : -6.24 dB Peak : 0.984375 CRC32 hash (test run) : 295B0F13 CRC32 hash : 295B0F13 CRC32 hash (skip zero) : 519D2C19 AccurateRip signature : F789899A ->Accurately ripped! (confidence 3) (matched with the different offset correction value; calculated using an additional offset of 114; the signature after correction is: 27CF13B4) Statistics Read error : 0 Jitter error (maybe fixed) : 0 Retry sector count : 0 Damaged sector count : 0

Track 04 Filename : /Users/andre/Music/Glenn Kaiser - 1994 - Spontaneous Combustion [FLAC]/04 Queen Bee.flac Pre-gap length : 00:01:35

Track gain : -3.76 dB Peak : 0.978302 CRC32 hash (test run) : 3DE12051 CRC32 hash : 3DE12051 CRC32 hash (skip zero) : BFDF01F5 AccurateRip signature : 952FC84C ->Accurately ripped! (confidence 3) (matched with the different offset correction value; calculated using an additional offset of 114; the signature after correction is: C12B8A82) Statistics Read error : 0 Jitter error (maybe fixed) : 0 Retry sector count : 0 Damaged sector count : 0

Track 05 Filename : /Users/andre/Music/Glenn Kaiser - 1994 - Spontaneous Combustion [FLAC]/05 Shufflin' the Deck.flac Pre-gap length : 00:01:35

Track gain : -5.98 dB Peak : 0.984375 CRC32 hash (test run) : 2DFEDEDB CRC32 hash : 2DFEDEDB CRC32 hash (skip zero) : C35C6B70 AccurateRip signature : BEB26F76 ->Accurately ripped! (confidence 3) (matched with the different offset correction value; calculated using an additional offset of 114; the signature after correction is: 1FB020D4) Statistics Read error : 0 Jitter error (maybe fixed) : 0 Retry sector count : 0 Damaged sector count : 0

Track 06 Filename : /Users/andre/Music/Glenn Kaiser - 1994 - Spontaneous Combustion [FLAC]/06 If I Leave This World Tomorrow.flac Pre-gap length : 00:01:35

Track gain : -5.90 dB Peak : 0.975494 CRC32 hash (test run) : C3174A3E CRC32 hash : C3174A3E CRC32 hash (skip zero) : 53D54392 AccurateRip signature : D41D26A0 ->Accurately ripped! (confidence 3) (matched with the different offset correction value; calculated using an additional offset of 114; the signature after correction is: 29C529B8) Statistics Read error : 0 Jitter error (maybe fixed) : 0 Retry sector count : 0 Damaged sector count : 0

Track 07 Filename : /Users/andre/Music/Glenn Kaiser - 1994 - Spontaneous Combustion [FLAC]/07 Ain't Much Difference.flac Pre-gap length : 00:01:38

Track gain : -6.38 dB Peak : 0.963806 CRC32 hash (test run) : 75AF861F CRC32 hash : 75AF861F CRC32 hash (skip zero) : 3ABE4F45 AccurateRip signature : A7CCD198 ->Accurately ripped! (confidence 3) (matched with the different offset correction value; calculated using an additional offset of 114; the signature after correction is: 8A1E60F0) Statistics Read error : 0 Jitter error (maybe fixed) : 0 Retry sector count : 0 Damaged sector count : 0

Track 08 Filename : /Users/andre/Music/Glenn Kaiser - 1994 - Spontaneous Combustion [FLAC]/08 Got a Hold on You.flac Pre-gap length : 00:01:42

Track gain : -4.76 dB Peak : 0.982300 CRC32 hash (test run) : 2FCE9703 CRC32 hash : 2FCE9703 CRC32 hash (skip zero) : 45B5321D AccurateRip signature : 4EDA1AE3 ->Accurately ripped! (confidence 3) (matched with the different offset correction value; calculated using an additional offset of 114; the signature after correction is: 4137E1CD) Statistics Read error : 0 Jitter error (maybe fixed) : 0 Retry sector count : 0 Damaged sector count : 0

Track 09 Filename : /Users/andre/Music/Glenn Kaiser - 1994 - Spontaneous Combustion [FLAC]/09 Where Would I Be.flac Pre-gap length : 00:01:42

Track gain : -4.75 dB Peak : 0.973633 CRC32 hash (test run) : 06F5EDFA CRC32 hash : 06F5EDFA CRC32 hash (skip zero) : 2469B11B AccurateRip signature : 15275891 ->Accurately ripped! (confidence 3) (matched with the different offset correction value; calculated using an additional offset of 114; the signature after correction is: 73551C53) Statistics Read error : 0 Jitter error (maybe fixed) : 0 Retry sector count : 0 Damaged sector count : 0

Track 10 Filename : /Users/andre/Music/Glenn Kaiser - 1994 - Spontaneous Combustion [FLAC]/10 Jump Start.flac Pre-gap length : 00:01:35

Track gain : -3.75 dB Peak : 0.962952 CRC32 hash (test run) : D85D9455 CRC32 hash : D85D9455 CRC32 hash (skip zero) : 8BE941A5 AccurateRip signature : DF58596F ->Accurately ripped! (confidence 3) (matched with the different offset correction value; calculated using an additional offset of 114; the signature after correction is: 368DE2D1) Statistics Read error : 0 Jitter error (maybe fixed) : 0 Retry sector count : 0 Damaged sector count : 0

Track 11 Filename : /Users/andre/Music/Glenn Kaiser - 1994 - Spontaneous Combustion [FLAC]/11 Queen of My Heart.flac Pre-gap length : 00:01:35

Track gain : -5.88 dB Peak : 0.980652 CRC32 hash (test run) : 8A4387D8 CRC32 hash : 8A4387D8 CRC32 hash (skip zero) : F4B53079 AccurateRip signature : 89B68C7C ->Accurately ripped! (confidence 3) (matched with the different offset correction value; calculated using an additional offset of 114; the signature after correction is: F7D836D4) Statistics Read error : 0 Jitter error (maybe fixed) : 0 Retry sector count : 0 Damaged sector count : 0

Track 12 Filename : /Users/andre/Music/Glenn Kaiser - 1994 - Spontaneous Combustion [FLAC]/12 Satellite Dish.flac Pre-gap length : 00:01:43

Track gain : -4.68 dB Peak : 0.973755 CRC32 hash (test run) : D3F406F6 CRC32 hash : D3F406F6 CRC32 hash (skip zero) : B210B5AC AccurateRip signature : 6B16AF49 ->Accurately ripped! (confidence 3) (matched with the different offset correction value; calculated using an additional offset of 114; the signature after correction is: F0CC2AA9) Statistics Read error : 0 Jitter error (maybe fixed) : 0 Retry sector count : 0 Damaged sector count : 0

Track 13 Filename : /Users/andre/Music/Glenn Kaiser - 1994 - Spontaneous Combustion [FLAC]/13 Spontaneous Combustion.flac Pre-gap length : 00:01:35

Track gain : -1.81 dB Peak : 0.950592 CRC32 hash (test run) : B78C4704 CRC32 hash : B78C4704 CRC32 hash (skip zero) : 9E18E708 AccurateRip signature : 10617C8D ->Accurately ripped! (confidence 3) (matched with the different offset correction value; calculated using an additional offset of 114; the signature after correction is: 12E825C7) Statistics Read error : 0 Jitter error (maybe fixed) : 0 Retry sector count : 0 Damaged sector count : 0

No errors occurred

End of status report
 
TITLE "Spontaneous Combustion"PERFORMER "Glenn Kaiser"REM DATE "1994"REM DISCNUMBER 1REM TOTALDISCS 1REM DISCID B90DF60DREM REPLAYGAIN_ALBUM_GAIN -5.44 dBREM REPLAYGAIN_ALBUM_PEAK 0.984375FILE "01 Everybody Understands the Blues.flac" WAVE TRACK 01 AUDIO TITLE "Everybody Understands the Blues" REM REPLAYGAIN_TRACK_GAIN -5.19 dB REM REPLAYGAIN_TRACK_PEAK 0.973755 PREGAP 00:00:32 INDEX 01 00:00:00 TRACK 02 AUDIO TITLE "Trouble" REM REPLAYGAIN_TRACK_GAIN -6.39 dB REM REPLAYGAIN_TRACK_PEAK 0.977722 INDEX 00 03:14:20FILE "02 Trouble.flac" WAVE INDEX 01 00:00:00 TRACK 03 AUDIO TITLE "Through the Night" REM REPLAYGAIN_TRACK_GAIN -6.24 dB REM REPLAYGAIN_TRACK_PEAK 0.984375 INDEX 00 04:22:55FILE "03 Through the Night.flac" WAVE INDEX 01 00:00:00 TRACK 04 AUDIO TITLE "Queen Bee" REM REPLAYGAIN_TRACK_GAIN -3.76 dB REM REPLAYGAIN_TRACK_PEAK 0.978302 INDEX 00 04:44:65FILE "04 Queen Bee.flac" WAVE INDEX 01 00:00:00 TRACK 05 AUDIO TITLE "Shufflin' the Deck" REM REPLAYGAIN_TRACK_GAIN -5.98 dB REM REPLAYGAIN_TRACK_PEAK 0.984375 INDEX 00 06:12:53FILE "05 Shufflin' the Deck.flac" WAVE INDEX 01 00:00:00 TRACK 06 AUDIO TITLE "If I Leave This World Tomorrow" REM REPLAYGAIN_TRACK_GAIN -5.90 dB REM REPLAYGAIN_TRACK_PEAK 0.975494 INDEX 00 03:59:15FILE "06 If I Leave This World Tomorrow.flac" WAVE INDEX 01 00:00:00 TRACK 07 AUDIO TITLE "Ain't Much Difference" REM REPLAYGAIN_TRACK_GAIN -6.38 dB REM REPLAYGAIN_TRACK_PEAK 0.963806 INDEX 00 07:10:37FILE "07 Ain't Much Difference.flac" WAVE INDEX 01 00:00:00 TRACK 08 AUDIO TITLE "Got a Hold on You" REM REPLAYGAIN_TRACK_GAIN -4.76 dB REM REPLAYGAIN_TRACK_PEAK 0.982300 INDEX 00 02:49:45FILE "08 Got a Hold on You.flac" WAVE INDEX 01 00:00:00 TRACK 09 AUDIO TITLE "Where Would I Be" REM REPLAYGAIN_TRACK_GAIN -4.75 dB REM REPLAYGAIN_TRACK_PEAK 0.973633 INDEX 00 05:16:33FILE "09 Where Would I Be.flac" WAVE INDEX 01 00:00:00 TRACK 10 AUDIO TITLE "Jump Start" REM REPLAYGAIN_TRACK_GAIN -3.75 dB REM REPLAYGAIN_TRACK_PEAK 0.962952 INDEX 00 06:01:28FILE "10 Jump Start.flac" WAVE INDEX 01 00:00:00 TRACK 11 AUDIO TITLE "Queen of My Heart" REM REPLAYGAIN_TRACK_GAIN -5.88 dB REM REPLAYGAIN_TRACK_PEAK 0.980652 INDEX 00 02:42:40FILE "11 Queen of My Heart.flac" WAVE INDEX 01 00:00:00 TRACK 12 AUDIO TITLE "Satellite Dish" REM REPLAYGAIN_TRACK_GAIN -4.68 dB REM REPLAYGAIN_TRACK_PEAK 0.973755 INDEX 00 05:18:07FILE "12 Satellite Dish.flac" WAVE INDEX 01 00:00:00 TRACK 13 AUDIO TITLE "Spontaneous Combustion" REM REPLAYGAIN_TRACK_GAIN -1.81 dB REM REPLAYGAIN_TRACK_PEAK 0.950592 INDEX 00 02:21:27FILE "13 Spontaneous Combustion.flac" WAVE INDEX 01 00:00:00
 
-----------------------

DON'T MODIFY THIS FILE

-----------------------

PERFORMER: auCDtect Task Manager, ver. 1.5.1RC3 build 1.5.1.4Copyright (c) 2008-2010 y-soft. All rights reservedhttp://y-soft.org

ANALYZER: auCDtect: CD records authenticity detector, version 0.8.2Copyright (c) 2004 Oleg Berngardt. All rights reserved.Copyright (c) 2004 Alexander Djourik. All rights reserved.

FILE: 13 Spontaneous Combustion.flac Size: 28452368 Hash: DC5CD22487B7CEECE54EA0381F567867 Accuracy: -m0 Conclusion: CDDA 100% Signature: 877C6AB1B86BE21BF7E3AFF53D7D0FFF94AF02D9FILE: 12 Satellite Dish.flac Size: 15578451 Hash: 980C8C09A0116E909F62911C5B052D9B Accuracy: -m0 Conclusion: CDDA 100% Signature: 4FC2BA2BEA980D7C32436BEF79128B51CCC6D3EFFILE: 11 Queen of My Heart.flac Size: 35055782 Hash: C6CD671C40BFC84783A86C85F1A03331 Accuracy: -m0 Conclusion: CDDA 100% Signature: 29F868B46E5C9CA751AFDDAD78E789382005DC7FFILE: 10 Jump Start.flac Size: 18284002 Hash: D693802685956AF38C75782754BCC285 Accuracy: -m0 Conclusion: CDDA 100% Signature: B1401349151E9360A4AB9CDD3364FD06AAE161A2FILE: 09 Where Would I Be.flac Size: 37034552 Hash: D17AAD1A421CC1013778CA6595A3401E Accuracy: -m0 Conclusion: CDDA 100% Signature: D7529038F2D728FD1FB3E9DCF6F07F69185A0D44FILE: 08 Got a Hold on You.flac Size: 36785308 Hash: D80CBF9C201DD28E8191FE20B883F4DA Accuracy: -m0 Conclusion: CDDA 100% Signature: 6D8A520342653D4D828F4ABD5C9E4CD05D1152E0FILE: 07 Ain't Much Difference.flac Size: 19772993 Hash: 6583243918330FE8CDEDD92EAD775FA3 Accuracy: -m0 Conclusion: CDDA 100% Signature: 1A17A7DCAAC7060EAD9A413145147C83A5FDB370FILE: 06 If I Leave This World Tomorrow.flac Size: 48395188 Hash: D1B55D131805314EC9194FB5EB5618D4 Accuracy: -m0 Conclusion: CDDA 99% Signature: 373C8365794A239DD91657DC286491AE4150B281FILE: 05 Shufflin' the Deck.flac Size: 26830259 Hash: 786B69B5D9A2ACE5A177CC15AEAE9B40 Accuracy: -m0 Conclusion: CDDA 100% Signature: 88E2ACDAC46F188051CF250FD17F3B2595359003FILE: 04 Queen Bee.flac Size: 40545396 Hash: 9014F2750696F51B75F4A8D4FBC56CE7 Accuracy: -m0 Conclusion: CDDA 100% Signature: ABF680751BD6318515884EF1140C417031560FFCFILE: 03 Through the Night.flac Size: 29959647 Hash: 84B13F69BFC36FF4DC48E317EC6E5241 Accuracy: -m0 Conclusion: CDDA 100% Signature: 24AE0D368616F2D1822D24A6082CE28E5AB19683FILE: 02 Trouble.flac Size: 31343614 Hash: F3195356AB794E1B26C1511F480ABB01 Accuracy: -m0 Conclusion: CDDA 100% Signature: 9E5A0E91398C96E1B745C498E16388C658AFBD85FILE: 01 Everybody Understands the Blues.flac Size: 22697136 Hash: 43E7AFB1B4CBDA130DD5AC3E2FD79C9D Accuracy: -m0 Conclusion: CDDA 100% Signature: 96E50AB80BB1371299713A66ABE6B330E50C7F66


Трекер:  [ 27-Янв-2012 17:51 ]

  

Скачать .torrent

Размер .torrent файла 16 KB


Размер: 375 MB
Хэш (hash) релиза: 4bd65a94ebf900b392d35e22d2f6fb5e776e1aa7

Еще никто не оставлял запись к записи скачать торрент Glenn Kaiser - Spontaneous Combustion - 1994, FLAC . Будь первым!

!Обратная связь