Скачать через торрент музыку The Allman Brothers Band - Eat a Peach - Re-Release 1998, FLAC бесплатно без регистрации torrent

Если у вас наблюдаются проблемы со скриншотами, переходом по ссылками, скачиванием торрентов - проблемы в блокировщике рекламы AdBlock. #хорошегоДня!


Статистика раздачи
Размер:  434 MB   |    Зарегистрирован:  5 лет 8 месяцев   |    .torrent скачан:  31 раз   |   
Раздают:  1  
   
Загрузка...
 
Автор Сообщение

Umakiro

avatar Umakiro


The Allman Brothers Band - Eat a Peach

Жанр: Blues-Rock / Southern Rock
Страна-производитель диска: Germany
Год издания диска: Re-Release 1998
Издатель (лейбл): Capricorn Records
Номер по каталогу: 531 261-2
Страна: U.S.A.
Аудиокодек: FLAC (*.flac)
Тип рипа: image+.cue
Битрейт аудио: lossless
Продолжительность: 69 - 56
Источник (релизер): свой cd
Наличие сканов в содержимом раздачи: да
Треклист:
1. Aint Wastin Time No More 3:40
2. Les Brers In A Minor 9:03
3. Melissa 3:54
4. Mountain Jam 33:38
5. One Way Out 4:58
6. Trouble No More 3:43
7. Stand Back 3:24
8. Blue Sky 5:09
9. Little Martha 2:07
 
Exact Audio Copy V0.99 prebeta 4 from 23. January 2008

Отчёт EAC об извлечении, выполненном 9. июля 2011, 19:34

The Allman Brothers Band / Eat a Peach

Дисковод: ASUS CRW-5232A3 Adapter: 0 ID: 0

Режим чтения : ДостоверностьИспользование точного потока : ДаОтключение кэша аудио : ДаИспользование указателей C2 : Нет

Коррекция смещения при чтении : 6Способность читать области Lead-in и Lead-out : НетЗаполнение пропущенных сэмплов тишиной : ДаУдаление блоков с тишиной в начале и конце : НетПри вычислениях CRC использовались нулевые сэмплы : ДаИнтерфейс : Встроенный Win32-интерфейс для Win NT/2000

Выходной формат : Пользовательский кодировщикВыбранный битрейт : 768 kBit/sКачество : ВысокийДобавление ID3-тэга : НетУтилита сжатия : C:\Program Files (x86)\Exact Audio Copy\Flac\flac.exeДополнительные параметры : -8 -V %s

TOC извлечённого CD

Трек | Старт | Длительность | Начальный сектор | Конечный сектор --------------------------------------------------------------------- 1 | 0:00.00 | 3:42.18 | 0 | 16667 2 | 3:42.18 | 9:07.07 | 16668 | 57699 3 | 12:49.25 | 3:56.03 | 57700 | 75402 4 | 16:45.28 | 33:41.17 | 75403 | 226994 5 | 50:26.45 | 4:58.10 | 226995 | 249354 6 | 55:24.55 | 3:45.03 | 249355 | 266232 7 | 59:09.58 | 3:27.70 | 266233 | 281827 8 | 62:37.53 | 5:10.72 | 281828 | 305149 9 | 67:48.50 | 2:07.38 | 305150 | 314712

Характеристики диапазона извлечения и сообщения об ошибках

Выбранный диапазон

Имя файла C:\eac\The Allman Brothers Band - Eat a Peach\The Allman Brothers Band - Eat a Peach.wav

Пиковый уровень 100.0 % Качество диапазона 100.0 % CRC теста 6B9CB6B5 CRC копии 6B9CB6B5 Копирование... OK

Ошибок не произошло

AccurateRip: сводка

Трек 1 точное извлечение (доверие 7) [6E552077]Трек 2 точное извлечение (доверие 7) [71BD0ECA]Трек 3 точное извлечение (доверие 7) [C2AEBBC2]Трек 4 точное извлечение (доверие 7) [901CD043]Трек 5 точное извлечение (доверие 7) [3427C6EA]Трек 6 точное извлечение (доверие 7) [1111FB37]Трек 7 точное извлечение (доверие 7) [79903982]Трек 8 точное извлечение (доверие 7) [767AECD9]Трек 9 точное извлечение (доверие 6) [FB13B214]

Все треки извлечены точно

Конец отчёта
 
REM GENRE "Southern Rock"REM DATE 1972REM DISCID 6D106409REM COMMENT "ExactAudioCopy v0.99pb4"PERFORMER "The Allman Brothers Band"TITLE "Eat a Peach "FILE "The Allman Brothers Band - Eat a Peach.flac" WAVE TRACK 01 AUDIO TITLE "Ain't Wastin' Time No More" PERFORMER "The Allman Brothers Band" INDEX 01 00:00:00 TRACK 02 AUDIO TITLE "Les Brers in A Minor" PERFORMER "The Allman Brothers Band" INDEX 00 03:40:43 INDEX 01 03:42:18 TRACK 03 AUDIO TITLE "Melissa" PERFORMER "The Allman Brothers Band" INDEX 00 12:45:50 INDEX 01 12:49:25 TRACK 04 AUDIO TITLE "Mountain Jam" PERFORMER "The Allman Brothers Band" INDEX 00 16:43:45 INDEX 01 16:45:28 TRACK 05 AUDIO TITLE "One Way Out" PERFORMER "The Allman Brothers Band" INDEX 00 50:23:62 INDEX 01 50:26:45 TRACK 06 AUDIO TITLE "Trouble No More" PERFORMER "The Allman Brothers Band" INDEX 01 55:24:55 TRACK 07 AUDIO TITLE "Stand Back" PERFORMER "The Allman Brothers Band" INDEX 00 59:07:73 INDEX 01 59:09:58 TRACK 08 AUDIO TITLE "Blue Sky" PERFORMER "The Allman Brothers Band" INDEX 00 62:34:70 INDEX 01 62:37:53 TRACK 09 AUDIO TITLE "Little Martha" PERFORMER "The Allman Brothers Band" INDEX 00 67:46:67 INDEX 01 67:48:50


Трекер:  [ 27-Янв-2012 17:50 ]

  

Скачать .torrent

Размер .torrent файла 18 KB


Размер: 434 MB
Хэш (hash) релиза: dfa9547859d1a6cf80f69d83055e2f4804da12b6

Еще никто не оставлял запись к записи скачать торрент The Allman Brothers Band - Eat a Peach - Re-Release 1998, FLAC . Будь первым!

!Обратная связь