Скачать через торрент музыку Eric Clapton - Clapton - 2010, FLAC бесплатно без регистрации torrent

Если у вас наблюдаются проблемы со скриншотами, переходом по ссылками, скачиванием торрентов - проблемы в блокировщике рекламы AdBlock. #хорошегоДня!


Статистика раздачи
Размер:  367 MB   |    Зарегистрирован:  5 лет 8 месяцев   |    .torrent скачан:  53 раза   |   
Раздают:  1  
   
Загрузка...
 
Автор Сообщение

Umakiro

avatar Umakiro


Eric Clapton - Clapton

Жанр: Blues-Rock
Страна-производитель диска: USA
Год издания диска: 2010
Издатель (лейбл): Reprise
Номер по каталогу: CD 525325
Аудио кодек: FLAC (*.flac)
Тип рипа: image+.cue
Битрейт аудио: lossless
Продолжительность: 1:02'03"
Наличие сканов в содержимом раздачи: да
Треклист:
01. Traveling Alone (3:54)
02. Rocking Chair (4:04)
03. River Runs Deep (5:53)
04. Judgement Day (3:14)
05. How Deep Is The Ocean (5:29)
06. Milkman (3:21)
07. Crazy About You Baby (4:08)
08. That's No Way To Get Along (6:08)
09. Everything Will Be Alright (3:52)
10. Diamonds (4:23)
11. When Somebody Thinks You're Wonderful (2:51)
12. Hard Times (3:45)
13. Run Back To Your Side (5:18)
14. Autum Leaves (5:39)
 
Exact Audio Copy V0.99 prebeta 4 from 23. January 2008

Отчёт EAC об извлечении, выполненном 28. сентября 2010, 21:08

Eric Clapton / Clapton

Дисковод: PLEXTOR DVDR PX-880SA Adapter: 1 ID: 1

Режим чтения : ДостоверностьИспользование точного потока : ДаОтключение кэша аудио : ДаИспользование указателей C2 : Нет

Коррекция смещения при чтении : 6Способность читать области Lead-in и Lead-out : НетЗаполнение пропущенных сэмплов тишиной : ДаУдаление блоков с тишиной в начале и конце : НетПри вычислениях CRC использовались нулевые сэмплы : ДаИнтерфейс : Установленный внешний ASPI-интерфейс

Выходной формат : Пользовательский кодировщикВыбранный битрейт : 1024 kBit/sКачество : ВысокийДобавление ID3-тэга : НетУтилита сжатия : C:\Program Files\Exact Audio Copy\FLAC\FLAC.EXEДополнительные параметры : -5 -V -T "ARTIST=%a" -T "TITLE=%t" -T "ALBUM=%g" -T "DATE=%y" -T "TRACKNUMBER=%n" -T "GENRE=%m" -T "COMMENT=%e" %s -o %d

TOC извлечённого CD

Трек | Старт | Длительность | Начальный сектор | Конечный сектор --------------------------------------------------------------------- 1 | 0:00.00 | 3:56.42 | 0 | 17741 2 | 3:56.42 | 4:04.24 | 17742 | 36065 3 | 8:00.66 | 5:52.62 | 36066 | 62527 4 | 13:53.53 | 3:13.23 | 62528 | 77025 5 | 17:07.01 | 5:29.14 | 77026 | 101714 6 | 22:36.15 | 3:20.68 | 101715 | 116782 7 | 25:57.08 | 4:08.59 | 116783 | 135441 8 | 30:05.67 | 6:07.48 | 135442 | 163014 9 | 36:13.40 | 3:51.46 | 163015 | 180385 10 | 40:05.11 | 4:22.70 | 180386 | 200105 11 | 44:28.06 | 2:51.10 | 200106 | 212940 12 | 47:19.16 | 3:45.36 | 212941 | 229851 13 | 51:04.52 | 5:17.67 | 229852 | 253693 14 | 56:22.44 | 5:40.59 | 253694 | 279252

Характеристики диапазона извлечения и сообщения об ошибках

Выбранный диапазон

Имя файла I:\BitComet\Eric Clapton(flac)\2010-Clapton\Eric Clapton - Clapton.wav

Пиковый уровень 97.7 % Качество диапазона 100.0 % CRC теста CFE547F0 CRC копии CFE547F0 Копирование... OK

Ошибок не произошло

AccurateRip: сводка

Трек 1 нет в базе данныхТрек 2 нет в базе данныхТрек 3 нет в базе данныхТрек 4 нет в базе данныхТрек 5 нет в базе данныхТрек 6 нет в базе данныхТрек 7 нет в базе данныхТрек 8 нет в базе данныхТрек 9 нет в базе данныхТрек 10 нет в базе данныхТрек 11 нет в базе данныхТрек 12 нет в базе данныхТрек 13 нет в базе данныхТрек 14 нет в базе данных

Ни одного трека нет в базе AccurateRip

Конец отчёта
Доп. информация:Картинка с ещё запечатанного СД!!!
Рип сделан собственноручно с оригинального СД!!!
Сканы в папке.
Релиз от ©СЁРФ-Маrаtones aka izia1956

Трекер:  [ 27-Янв-2012 17:50 ]

  

Скачать .torrent

Размер .torrent файла 15 KB


Размер: 367 MB
Хэш (hash) релиза: f96f9719a0acfe8a784cb99b1a3ef98f26e42b80

Еще никто не оставлял запись к записи скачать торрент Eric Clapton - Clapton - 2010, FLAC . Будь первым!

!Обратная связь