Скачать через торрент музыку Timo Gross - Desire - 2008, APE бесплатно без регистрации torrent

Если у вас наблюдаются проблемы со скриншотами, переходом по ссылками, скачиванием торрентов - проблемы в блокировщике рекламы AdBlock. #хорошегоДня!


Статистика раздачи
Размер:  431 MB   |    Зарегистрирован:  5 лет 8 месяцев   |    .torrent скачан:  38 раз   |   
Раздают:  1  
   
Загрузка...
 
Автор Сообщение

Umakiro

avatar Umakiro


Timo Gross - Desire

Жанр: Blues/Rock
Год выпуска диска: 2008
Аудио кодек: APE
Тип рипа: image+.cue
Битрейт аудио: lossless
Продолжительность: 1:04:58
Трэклист:
01. Desire [0:05:30.16]
02. Driven Soul [0:05:06.64]
03. Voodoo Priest [0:04:22.50]
04. Freedom [0:05:18.41]
05. Lighthouse [0:04:22.26]
06. Sweet Love [0:05:23.37]
07. That's All [0:03:57.23]
08. Howlin' Diabolo [0:05:06.25]
09. Scary Love [0:04:47.03]
10. American Steel [0:03:51.71]
11. World On Fire [0:04:05.19]
12. Some Kind Of Wonderful [0:05:03.44]
13. Northbound [0:03:42.39]
14. Here Comes The Blues [0:04:20.16]
Exact Audio Copy V0.99 prebeta 4 from 23. January 2008

Отчёт EAC об извлечении, выполненном 9. марта 2009, 0:22

Timo Gross / Desire

Дисковод: Optiarc DVD RW AD-7170A Adapter: 0 ID: 1

Режим чтения : Достоверность
Использование точного потока : Да
Отключение кэша аудио : Да
Использование указателей C2 : Нет

Коррекция смещения при чтении : 48
Способность читать области Lead-in и Lead-out : Нет
Заполнение пропущенных сэмплов тишиной : Да
Удаление блоков с тишиной в начале и конце : Нет
При вычислениях CRC использовались нулевые сэмплы : Да
Интерфейс : Встроенный Win32-интерфейс для Win NT/2000

Выходной формат : Внутренние WAV-операции
Формат сэмплов : 44.100 Гц; 16 бит; стерео

TOC извлечённого CD

Трек | Старт | Длительность | Начальный сектор | Конечный сектор
---------------------------------------------------------------------
1 | 0:00.00 | 5:30.16 | 0 | 24765
2 | 5:30.16 | 5:06.64 | 24766 | 47779
3 | 10:37.05 | 4:22.50 | 47780 | 67479
4 | 14:59.55 | 5:18.41 | 67480 | 91370
5 | 20:18.21 | 4:22.26 | 91371 | 111046
6 | 24:40.47 | 5:23.37 | 111047 | 135308
7 | 30:04.09 | 3:57.23 | 135309 | 153106
8 | 34:01.32 | 5:06.25 | 153107 | 176081
9 | 39:07.57 | 4:47.03 | 176082 | 197609
10 | 43:54.60 | 3:51.71 | 197610 | 215005
11 | 47:46.56 | 4:05.19 | 215006 | 233399
12 | 51:52.00 | 5:03.44 | 233400 | 256168
13 | 56:55.44 | 3:42.39 | 256169 | 272857
14 | 60:38.08 | 4:20.16 | 272858 | 292373

Характеристики диапазона извлечения и сообщения об ошибках

Выбранный диапазон

Имя файла D:\Муз раздача 1\Timo Gross-Desire\Timo Gross - Desire.wav

Пиковый уровень 98.8 %
Качество диапазона 99.9 %
CRC копии B3ACCCF7
Копирование... OK

Ошибок не произошло

Конец отчёта


Трекер:  [ 27-Янв-2012 17:49 ]

  

Скачать .torrent

Размер .torrent файла 35 KB


Размер: 431 MB
Хэш (hash) релиза: d85b5660256e5ca658d12cf293d13921936f7647

Еще никто не оставлял запись к записи скачать торрент Timo Gross - Desire - 2008, APE . Будь первым!

!Обратная связь