Скачать через торрент музыку Don Griffin - Standing Alone - 1998, APE бесплатно без регистрации torrent

Если у вас наблюдаются проблемы со скриншотами, переходом по ссылками, скачиванием торрентов - проблемы в блокировщике рекламы AdBlock. #хорошегоДня!


Статистика раздачи
Размер:  293 MB   |    Зарегистрирован:  5 лет 8 месяцев   |    .torrent скачан:  39 раз   |   
Раздают:  1  
   
Загрузка...
 
Автор Сообщение

Umakiro

avatar Umakiro


Don Griffin - Standing Alone

Жанр: Blues-Rock
Год издания диска: 1998
Аудио кодек: APE (*.ape)
Тип рипа: image+.cue
Битрейт аудио: lossless
Продолжительность: 40:47
Источник (релизер): Original CD
Наличие сканов в содержимом раздачи: да
Треклист:
01. Lots To Do [0:02:38.93]
02. Nasty [0:03:40.42]
03. Standing Alone [0:03:37.13]
04. Love My Baby [0:05:48.77]
05. Won't Be Back [0:03:11.36]
06. Doing Wrong [0:02:54.64]
07. Cry No More [0:05:11.69]
08. How It Is [0:02:58.84]
09. Bad Today [0:03:26.93]
10. Get So Troubled [0:03:56.89]
11. Home Tonight [0:03:21.00]
 
Exact Audio Copy V0.99 prebeta 4 from 23. January 2008

Отчёт EAC об извлечении, выполненном 29. декабря 2010, 2:10

Don Griffin / Standing Alone

Дисковод: PLEXTOR DVDR PX-820A Adapter: 3 ID: 1

Режим чтения : ДостоверностьИспользование точного потока : ДаОтключение кэша аудио : ДаИспользование указателей C2 : Нет

Коррекция смещения при чтении : 48Способность читать области Lead-in и Lead-out : НетЗаполнение пропущенных сэмплов тишиной : ДаУдаление блоков с тишиной в начале и конце : НетПри вычислениях CRC использовались нулевые сэмплы : ДаИнтерфейс : Встроенный Win32-интерфейс для Win NT/2000

Выходной формат : Внутренние WAV-операцииФормат сэмплов : 44.100 Гц; 16 бит; стерео

TOC извлечённого CD

Трек | Старт | Длительность | Начальный сектор | Конечный сектор --------------------------------------------------------------------- 1 | 0:00.00 | 2:38.70 | 0 | 11919 2 | 2:38.70 | 3:40.32 | 11920 | 28451 3 | 6:19.27 | 3:37.10 | 28452 | 44736 4 | 9:56.37 | 5:48.58 | 44737 | 70894 5 | 15:45.20 | 3:11.27 | 70895 | 85246 6 | 18:56.47 | 2:54.48 | 85247 | 98344 7 | 21:51.20 | 5:11.52 | 98345 | 121721 8 | 27:02.72 | 2:58.63 | 121722 | 135134 9 | 30:01.60 | 3:26.70 | 135135 | 150654 10 | 33:28.55 | 3:56.67 | 150655 | 168421 11 | 37:25.47 | 3:21.00 | 168422 | 183496

Характеристики диапазона извлечения и сообщения об ошибках

Выбранный диапазон

Имя файла D:\КОЛЛЕКЦИЯ 9\Новая папка (5)\Don Griffin - Standing Alone.wav

Пиковый уровень 99.9 % Качество диапазона 100.0 % CRC копии 3DD7DDF3 Копирование... OK

Ошибок не произошло

AccurateRip: сводка

Трек 1 нет в базе данныхТрек 2 нет в базе данныхТрек 3 нет в базе данныхТрек 4 нет в базе данныхТрек 5 нет в базе данныхТрек 6 нет в базе данныхТрек 7 нет в базе данныхТрек 8 нет в базе данныхТрек 9 нет в базе данныхТрек 10 нет в базе данныхТрек 11 нет в базе данных

Ни одного трека нет в базе AccurateRip

Конец отчёта


Трекер:  [ 27-Янв-2012 17:48 ]

  

Скачать .torrent

Размер .torrent файла 12 KB


Размер: 293 MB
Хэш (hash) релиза: 5852aa1ef3405be7dea18e46a684ed7ab4a66d0b

Еще никто не оставлял запись к записи скачать торрент Don Griffin - Standing Alone - 1998, APE . Будь первым!

!Обратная связь