Скачать через торрент музыку Storm Warning - Breaking Out - 2006, APE бесплатно без регистрации torrent

Если у вас наблюдаются проблемы со скриншотами, переходом по ссылками, скачиванием торрентов - проблемы в блокировщике рекламы AdBlock. #хорошегоДня!


Статистика раздачи
Размер:  336 MB   |    Зарегистрирован:  5 лет 8 месяцев   |    .torrent скачан:  34 раза   |   
Раздают:  1  
   
Загрузка...
 
Автор Сообщение

Umakiro

avatar Umakiro


Storm Warning - Breaking Out

Жанр: Blues-Rock
Год выпуска диска: 2006
Аудио кодек: APE
Тип рипа: image+.cue
Битрейт аудио: lossless
Продолжительность: 50:10

Трэклист:
1. Bullets
2. The Woman ? Or The Blues?
3. Dangerous Mood
4. Long Grey Mare
5. Big Man
6. Ballad Of 64
7. Upton Strut
8. The Blues Are Back
9. Whisky Blues
<Exact Audio Copy V0.99 prebeta 4 from 23. January 2008

Отчёт EAC об извлечении, выполненном 29. ноября 2009, 21:38

Storm Warning / Breaking Out

Дисковод: PIONEER DVD-RW DVR-K17A Adapter: 1 ID: 0

Режим чтения : Достоверность
Использование точного потока : Да
Отключение кэша аудио : Да
Использование указателей C2 : Нет

Коррекция смещения при чтении : 48
Способность читать области Lead-in и Lead-out : Нет
Заполнение пропущенных сэмплов тишиной : Да
Удаление блоков с тишиной в начале и конце : Нет
При вычислениях CRC использовались нулевые сэмплы : Да
Интерфейс : Установленный внешний ASPI-интерфейс

Выходной формат : Внутренние WAV-операции
Формат сэмплов : 44.100 Гц; 16 бит; стерео

TOC извлечённого CD

Трек | Старт | Длительность | Начальный сектор | Конечный сектор
---------------------------------------------------------------------
1 | 0:00.00 | 6:15.45 | 0 | 28169
2 | 6:15.45 | 4:26.56 | 28170 | 48175
3 | 10:42.26 | 6:23.44 | 48176 | 76944
4 | 17:05.70 | 5:42.70 | 76945 | 102664
5 | 22:48.65 | 5:37.35 | 102665 | 127974
6 | 28:26.25 | 4:59.69 | 127975 | 150468
7 | 33:26.19 | 6:46.28 | 150469 | 180946
8 | 40:12.47 | 4:00.19 | 180947 | 198965
9 | 44:12.66 | 5:57.25 | 198966 | 225765

Характеристики диапазона извлечения и сообщения об ошибках

Выбранный диапазон

Имя файла C:\торрент\Storm Warning - Breaking Out\Storm Warning - Breaking Out.wav

Пиковый уровень 100.0 %
Качество диапазона 100.0 %
CRC копии F890924D
Копирование... OK

Ошибок не произошло

Конец отчёта
>
< >
< >
Доп. информация:
Breaking Out, is the debut album from UK-based blues-rockers Storm Warning,
released in 2006. The band has been touring the UK throughout 2005 and during
2006, with highly acclaimed blues club and festival appearances.

Keyboards Ian Salisbury
Guitar and Pink Bomb Bob Moore
Vocals and Harmonica Stuart 'Son' Maxwell
Drums and Percussion Roger Willis
Bass Derek White

Трекер:  [ 27-Янв-2012 17:47 ]

  

Скачать .torrent

Размер .torrent файла 14 KB


Размер: 336 MB
Хэш (hash) релиза: d3f14eb093be3d5cbb70a841566dd738767b176f

Еще никто не оставлял запись к записи скачать торрент Storm Warning - Breaking Out - 2006, APE . Будь первым!

!Обратная связь