Скачать через торрент музыку Anthony Gomes - Music Is The Medicine - 2006, WavPack бесплатно без регистрации torrent

Если у вас наблюдаются проблемы со скриншотами, переходом по ссылками, скачиванием торрентов - проблемы в блокировщике рекламы AdBlock. #хорошегоДня!


Статистика раздачи
Размер:  403 MB   |    Зарегистрирован:  5 лет 8 месяцев   |    .torrent скачан:  32 раза   |   
Раздают:  1  
   
Загрузка...
 
Автор Сообщение

Umakiro

avatar Umakiro


Anthony Gomes - Music Is The Medicine

Жанр: Blues/Blues Rock
Год издания диска: 2006
Издатель (лейбл): Adrenaline
Номер по каталогу: ADM-40023-2
Аудиокодек: WavPack (*.wv)
Тип рипа: iso.wv
Битрейт аудио: lossless
Продолжительность: 49:44
Источник (релизер): Phiv (NetLab)
Наличие сканов в содержимом раздачи: да
Треклист:
01.Music Is The Medicine (03:40)
02.Bluebird (03:35)
03.Now She`S Gone (03:30)
04.Stand Up (04:01)
05.War On War (05:09)
06.Love Is The Answer (04:18)
07.Everyday Superstar (04:01)
08.Testify (03:21)
09.Waiting For A Sign (03:57)
10.What If (03:45)
11.Run (04:13)
12.When The Right Woman Does You Wrong (06:10)
 
Exact Audio Copy V1.0 beta 2 from 29. April 2011

EAC extraction logfile from 13. January 2012, 10:43

Gomes, Anthony / Music Is The Medicine

Used drive : Optiarc DVD RW AD-7173A Adapter: 0 ID: 0

Read mode : SecureUtilize accurate stream : YesDefeat audio cache : YesMake use of C2 pointers : No

Read offset correction : 48Overread into Lead-In and Lead-Out : NoFill up missing offset samples with silence : YesDelete leading and trailing silent blocks : NoNull samples used in CRC calculations : YesUsed interface : Native Win32 interface for Win NT & 2000

Used output format : User Defined EncoderSelected bitrate : 1024 kBit/sQuality : HighAdd ID3 tag : NoCommand line compressor : D:\My\Exact Audio Copy\wavepack\wavpack.exeAdditional command line options : -hm %source% %dest%

TOC of the extracted CD

Track | Start | Length | Start sector | End sector --------------------------------------------------------- 1 | 0:01.00 | 3:41.20 | 75 | 16669 2 | 3:42.20 | 3:38.60 | 16670 | 33079 3 | 7:21.05 | 3:31.52 | 33080 | 48956 4 | 10:52.57 | 4:04.21 | 48957 | 67277 5 | 14:57.03 | 5:11.54 | 67278 | 90656 6 | 20:08.57 | 4:21.40 | 90657 | 110271 7 | 24:30.22 | 4:03.19 | 110272 | 128515 8 | 28:33.41 | 3:26.55 | 128516 | 144020 9 | 32:00.21 | 3:58.38 | 144021 | 161908 10 | 35:58.59 | 3:47.19 | 161909 | 178952 11 | 39:46.03 | 4:15.47 | 178953 | 198124 12 | 44:01.50 | 6:10.12 | 198125 | 225886

Range status and errors

Selected range

Filename D:\My\Gomes, Anthony - 2006 - Music Is The Medicine\Gomes, Anthony - Music Is The Medicine.wav

Peak level 96.6 % Extraction speed 1.8 X Range quality 99.9 % Test CRC 1D5DC535 Copy CRC 1D5DC535 Copy OK

No errors occurred

AccurateRip summary

Track 1 accurately ripped (confidence 6) [B357D38C] (AR v1)Track 2 accurately ripped (confidence 6) [47FB8000] (AR v1)Track 3 accurately ripped (confidence 6) [8995F51E] (AR v1)Track 4 accurately ripped (confidence 6) [522016C6] (AR v1)Track 5 accurately ripped (confidence 6) [D1C80AB8] (AR v1)Track 6 accurately ripped (confidence 6) [C8BBD21E] (AR v1)Track 7 accurately ripped (confidence 6) [F4076546] (AR v1)Track 8 accurately ripped (confidence 6) [EAAC82AF] (AR v1)Track 9 accurately ripped (confidence 6) [86EB1954] (AR v1)Track 10 accurately ripped (confidence 6) [DBEA62FD] (AR v1)Track 11 accurately ripped (confidence 6) [C631FC1D] (AR v1)Track 12 accurately ripped (confidence 6) [B5B50E31] (AR v1)

All tracks accurately ripped

End of status report
 
REM GENRE "Blues/Blues Rock"REM DATE 2006REM DISCID 9A0BC20CREM COMMENT "ExactAudioCopy v1.0b2"PERFORMER "Gomes, Anthony"TITLE "Music Is The Medicine"FILE "Gomes, Anthony (2006) Music Is The Medicine.wv" WAVE TRACK 01 AUDIO TITLE "Music Is The Medicine" PERFORMER "Gomes, Anthony" FLAGS DCP INDEX 00 00:00:00 INDEX 01 00:01:00 TRACK 02 AUDIO TITLE "Bluebird" PERFORMER "Gomes, Anthony" FLAGS DCP INDEX 00 03:41:07 INDEX 01 03:42:20 TRACK 03 AUDIO TITLE "Now She`S Gone" PERFORMER "Gomes, Anthony" FLAGS DCP INDEX 00 07:17:37 INDEX 01 07:21:05 TRACK 04 AUDIO TITLE "Stand Up" PERFORMER "Gomes, Anthony" FLAGS DCP INDEX 00 10:51:49 INDEX 01 10:52:57 TRACK 05 AUDIO TITLE "War On War" PERFORMER "Gomes, Anthony" FLAGS DCP INDEX 00 14:54:39 INDEX 01 14:57:03 TRACK 06 AUDIO TITLE "Love Is The Answer" PERFORMER "Gomes, Anthony" FLAGS DCP INDEX 00 20:06:40 INDEX 01 20:08:57 TRACK 07 AUDIO TITLE "Everyday Superstar" PERFORMER "Gomes, Anthony" FLAGS DCP INDEX 00 24:27:19 INDEX 01 24:30:22 TRACK 08 AUDIO TITLE "Testify" PERFORMER "Gomes, Anthony" FLAGS DCP INDEX 00 28:31:38 INDEX 01 28:33:41 TRACK 09 AUDIO TITLE "Waiting For A Sign" PERFORMER "Gomes, Anthony" FLAGS DCP INDEX 00 31:55:39 INDEX 01 32:00:21 TRACK 10 AUDIO TITLE "What If" PERFORMER "Gomes, Anthony" FLAGS DCP INDEX 00 35:57:30 INDEX 01 35:58:59 TRACK 11 AUDIO TITLE "Run" PERFORMER "Gomes, Anthony" FLAGS DCP INDEX 00 39:44:43 INDEX 01 39:46:03 TRACK 12 AUDIO TITLE "When The Right Woman Does You Wrong" PERFORMER "Gomes, Anthony" FLAGS DCP INDEX 00 43:59:09 INDEX 01 44:01:50
 
[CUETools log; Date: 13.01.2012 20:07:54; Version: 2.0.9]Pregap length 00:01:00.[AccurateRip ID: 00156df0-00c98470-9a0bc20c] found.Track [ CRC ] Status 01 [b357d38c] (06/11) Accurately ripped 02 [47fb8000] (06/11) Accurately ripped 03 [8995f51e] (06/11) Accurately ripped 04 [522016c6] (06/11) Accurately ripped 05 [d1c80ab8] (06/11) Accurately ripped 06 [c8bbd21e] (06/11) Accurately ripped 07 [f4076546] (06/11) Accurately ripped 08 [eaac82af] (06/11) Accurately ripped 09 [86eb1954] (06/11) Accurately ripped 10 [dbea62fd] (06/11) Accurately ripped 11 [c631fc1d] (06/11) Accurately ripped 12 [b5b50e31] (06/11) Accurately rippedOffsetted by -628: 01 [c22d247a] (05/11) Accurately ripped 02 [2c26e8e7] (05/11) Accurately ripped 03 [71026efc] (05/11) Accurately ripped 04 [141f3ac3] (05/11) Accurately ripped 05 [6b7ea1ed] (05/11) Accurately ripped 06 [89a36e48] (05/11) Accurately ripped 07 [8572e502] (05/11) Accurately ripped 08 [20f7758d] (05/11) Accurately ripped 09 [b2157ef0] (05/11) Accurately ripped 10 [cd847957] (05/11) Accurately ripped 11 [4e148c3d] (05/11) Accurately ripped 12 [25a6dbd9] (05/11) Accurately ripped

Track Peak [ CRC32 ] [W/O NULL] [ LOG ] -- 96,6 [1D5DC535] [2A0FECFA] CRC32 01 96,6 [D52CA15C] [3BA64A4B] 02 96,6 [1A2A4402] [E525555D] 03 96,6 [FE718FC3] [DB4CE6B8] 04 96,6 [08AD0DFE] [B015948F] 05 96,6 [EAB4FE4F] [6702BD3F] 06 96,6 [9019333E] [BF912AC4] 07 96,6 [7F8A3F9F] [CCBA9F61] 08 96,6 [6CFBAC11] [1744B4C7] 09 96,6 [F196C3B3] [4B331607] 10 96,6 [780110B0] [A5BEF2D9] 11 96,6 [96AA3FCB] [90B7E918] 12 96,6 [A8B65D54] [6AEA0870]
checkers, scans, tracklist, Gomes, Anthony (2006) Music Is The Medicine.wv, Gomes, Anthony (2006) Music Is The Medicine.wv.cue, front.jpg, cd.jpg, back.jpg, Adrenaline.sig, Gomes, Anthony (2006) Music Is The Medicine.log


Трекер:  [ 27-Янв-2012 17:46 ]

  

Скачать .torrent

Размер .torrent файла 32 KB


Размер: 403 MB
Хэш (hash) релиза: ff486b91e9fe921408002695cb633a34ab23ed66

Еще никто не оставлял запись к записи скачать торрент Anthony Gomes - Music Is The Medicine - 2006, WavPack . Будь первым!

!Обратная связь