Скачать через торрент музыку Carolyn Wonderland - Bloodless Revolution - 2003, APE бесплатно без регистрации torrent

Если у вас наблюдаются проблемы со скриншотами, переходом по ссылками, скачиванием торрентов - проблемы в блокировщике рекламы AdBlock. #хорошегоДня!


Статистика раздачи
Размер:  283 MB   |    Зарегистрирован:  5 лет 8 месяцев   |    .torrent скачан:  37 раз   |   
Раздают:  1  
   
Загрузка...
 
Автор Сообщение

Umakiro

avatar Umakiro


Carolyn Wonderland - Bloodless Revolution

Жанр: Blues-Rock
Год издания диска: 2003
Аудиокодек: APE (*.ape)
Тип рипа: image+.cue
Битрейт аудио: lossless
Продолжительность: 41:27
Источник (релизер): CD
Наличие сканов в содержимом раздачи: да
Треклист:
01. Smile [0:03:39.57]
02. This Land [0:03:16.36]
03. Annie's Scarlet Letter [0:04:22.94]
04. He Said, She Said [0:03:23.46]
05. Unbroken [0:03:24.10]
06. Judgment Day Blues [0:04:25.77]
07. Bloodless Revolution [0:04:32.52]
08. Heart [0:04:09.09]
09. Homelessness In Austin [0:03:57.69]
10. From A Waffle Booth Six [0:02:26.18]
11. Driving Into The Sun [0:03:49.36]
 
Exact Audio Copy V0.99 prebeta 4 from 23. January 2008

Отчёт EAC об извлечении, выполненном 6. сентября 2011, 21:30

Carolyn Wonderland / Bloodless Revolution

Дисковод: Optiarc DVD RW AD-7173A Adapter: 0 ID: 1

Режим чтения : ДостоверностьИспользование точного потока : ДаОтключение кэша аудио : ДаИспользование указателей C2 : Нет

Коррекция смещения при чтении : 48Способность читать области Lead-in и Lead-out : НетЗаполнение пропущенных сэмплов тишиной : ДаУдаление блоков с тишиной в начале и конце : НетПри вычислениях CRC использовались нулевые сэмплы : ДаИнтерфейс : Встроенный Win32-интерфейс для Win NT/2000

Выходной формат : Внутренние WAV-операцииФормат сэмплов : 44.100 Гц; 16 бит; стерео

TOC извлечённого CD

Трек | Старт | Длительность | Начальный сектор | Конечный сектор --------------------------------------------------------------------- 1 | 0:00.00 | 3:39.43 | 0 | 16467 2 | 3:39.43 | 3:16.27 | 16468 | 31194 3 | 6:55.70 | 4:22.71 | 31195 | 50915 4 | 11:18.66 | 3:23.35 | 50916 | 66175 5 | 14:42.26 | 3:24.08 | 66176 | 81483 6 | 18:06.34 | 4:25.58 | 81484 | 101416 7 | 22:32.17 | 4:32.39 | 101417 | 121855 8 | 27:04.56 | 4:09.07 | 121856 | 140537 9 | 31:13.63 | 3:57.52 | 140538 | 158364 10 | 35:11.40 | 2:26.14 | 158365 | 169328 11 | 37:37.54 | 3:49.27 | 169329 | 186530

Характеристики диапазона извлечения и сообщения об ошибках

Выбранный диапазон

Имя файла D:\КОЛЛЕКЦИЯ 12\Новая папка (5)\Carolyn Wonderland - Bloodless Revolution.wav

Пиковый уровень 97.7 % Качество диапазона 100.0 % CRC теста 317FF0FB CRC копии 317FF0FB Копирование... OK

Ошибок не произошло

AccurateRip: сводка

Трек 1 точное извлечение (доверие 2) [62667CBA]Трек 2 точное извлечение (доверие 2) [C68F7FBD]Трек 3 точное извлечение (доверие 2) [5E7549CD]Трек 4 точное извлечение (доверие 2) [58D436E5]Трек 5 точное извлечение (доверие 2) [98980673]Трек 6 точное извлечение (доверие 2) [78942041]Трек 7 точное извлечение (доверие 2) [21156DCA]Трек 8 точное извлечение (доверие 2) [BF580911]Трек 9 точное извлечение (доверие 2) [A8CEA152]Трек 10 точное извлечение (доверие 2) [9D649C9B]Трек 11 точное извлечение (доверие 2) [E1345811]

Все треки извлечены точно

Конец отчёта


Трекер:  [ 27-Янв-2012 17:45 ]

  

Скачать .torrent

Размер .torrent файла 12 KB


Размер: 283 MB
Хэш (hash) релиза: 8e11fd1051543dfcd444ef86780a8ee2603f5a73

Еще никто не оставлял запись к записи скачать торрент Carolyn Wonderland - Bloodless Revolution - 2003, APE . Будь первым!

!Обратная связь