Скачать через торрент музыку Carolyn Wonderland - Alcohol & Salvation - 2001, FLAC бесплатно без регистрации torrent

Если у вас наблюдаются проблемы со скриншотами, переходом по ссылками, скачиванием торрентов - проблемы в блокировщике рекламы AdBlock. #хорошегоДня!


Статистика раздачи
Размер:  273 MB   |    Зарегистрирован:  5 лет 8 месяцев   |    .torrent скачан:  33 раза   |   
Раздают:  1  
   
Загрузка...
 
Автор Сообщение

Umakiro

avatar Umakiro


Carolyn Wonderland - Alcohol & Salvation

Жанр: Blues-rock / Contemporary Blues
Год издания диска: 2001
Аудиокодек: FLAC (*.flac)
Тип рипа: tracks+.cue
Битрейт аудио: lossless
Продолжительность: 44:26
Источник (релизер): Источник - Вата, релизер - yourservice
Наличие сканов в содержимом раздачи: да
Треклист:
1. I'm Innocent (Olsen, Wonderland) 2:55
2. I'm Out Sick (Wonderland) 2:36
3. How Many Crowes (Wonderland) 3:55
4. Brick Wall (Wonderland) 2:12
5. The Only Girl You Know (Blanchet, Wonderland) 2:53
6. Worst Day of My Life (Wonderland) 3:27
7. Bad Girl (Wonderland) 2:19
8. Beer (Wonderland) 1:13
9. Pieces of a Postcard (Forsyth, Wonderland) 3:47
10. Feed Me to the Lions (Wonderland) 3:56
11. Sober (Wonderland) 4:02
12. I'm the Man (Wonderland) 2:32
13. Gospel Song (Daniels) 5:12
14. I Don't Wanna Fall for You (Goins, Wonderland) 3:21
 
Exact Audio Copy V0.99 prebeta 5 from 4. May 2009

EAC extraction logfile from 19. September 2010, 18:41

Carolyn Wonderland / Alcohol & Salvation

Used drive : LITE-ON DVDRW LH-20A1P Adapter: 1 ID: 0

Read mode : SecureUtilize accurate stream : YesDefeat audio cache : YesMake use of C2 pointers : No

Read offset correction : 6Overread into Lead-In and Lead-Out : NoFill up missing offset samples with silence : YesDelete leading and trailing silent blocks : NoNull samples used in CRC calculations : YesUsed interface : Native Win32 interface for Win NT & 2000Gap handling : Appended to previous track

Used output format : User Defined EncoderSelected bitrate : 320 kBit/sQuality : HighAdd ID3 tag : NoCommand line compressor : C:\Program Files\Exact Audio Copy\Flac\flac.exeAdditional command line options : -5 -A tukey(0.25) -A gauss(0.1875) -b 4096 -V -T "artist=%a" -T "title=%t" -T "album=%g" -T "date=%y" -T "tracknumber=%n" -T "genre=%m" %s --sector-align

TOC of the extracted CD

Track | Start | Length | Start sector | End sector --------------------------------------------------------- 1 | 0:00.00 | 2:55.02 | 0 | 13126 2 | 2:55.02 | 2:36.21 | 13127 | 24847 3 | 5:31.23 | 3:55.72 | 24848 | 42544 4 | 9:27.20 | 2:12.37 | 42545 | 52481 5 | 11:39.57 | 2:53.27 | 52482 | 65483 6 | 14:33.09 | 3:27.38 | 65484 | 81046 7 | 18:00.47 | 2:19.21 | 81047 | 91492 8 | 20:19.68 | 1:13.18 | 91493 | 96985 9 | 21:33.11 | 3:47.45 | 96986 | 114055 10 | 25:20.56 | 3:56.25 | 114056 | 131780 11 | 29:17.06 | 4:02.53 | 131781 | 149983 12 | 33:19.59 | 2:32.49 | 149984 | 161432 13 | 35:52.33 | 5:12.23 | 161433 | 184855 14 | 41:04.56 | 3:21.28 | 184856 | 199958

Track 1

Filename C:\Klaar\Carolyn Wonderland - Alcohol & Salvation 2001 Flac\01 I'm Innocent.wav

Pre-gap length 0:00:02.00

Peak level 81.1 % Track quality 100.0 % Test CRC 6B47F5A6 Copy CRC 6B47F5A6 Copy OK

Track 2

Filename C:\Klaar\Carolyn Wonderland - Alcohol & Salvation 2001 Flac\02 I'm Out Sick.wav

Peak level 81.4 % Track quality 100.0 % Test CRC EB067242 Copy CRC EB067242 Copy OK

Track 3

Filename C:\Klaar\Carolyn Wonderland - Alcohol & Salvation 2001 Flac\03 How Many Crowes.wav

Peak level 80.8 % Track quality 100.0 % Test CRC 8F93368A Copy CRC 8F93368A Copy OK

Track 4

Filename C:\Klaar\Carolyn Wonderland - Alcohol & Salvation 2001 Flac\04 Brick Wall.wav

Peak level 81.8 % Track quality 99.9 % Test CRC F3A4A269 Copy CRC F3A4A269 Copy OK

Track 5

Filename C:\Klaar\Carolyn Wonderland - Alcohol & Salvation 2001 Flac\05 The Only Girl You Know.wav

Peak level 82.8 % Track quality 99.9 % Test CRC 0601EB37 Copy CRC 0601EB37 Copy OK

Track 6

Filename C:\Klaar\Carolyn Wonderland - Alcohol & Salvation 2001 Flac\06 Worst Day Of My Life.wav

Peak level 77.8 % Track quality 100.0 % Test CRC F951845C Copy CRC F951845C Copy OK

Track 7

Filename C:\Klaar\Carolyn Wonderland - Alcohol & Salvation 2001 Flac\07 Bad Girl.wav

Peak level 82.5 % Track quality 100.0 % Test CRC 896B0EE9 Copy CRC 896B0EE9 Copy OK

Track 8

Filename C:\Klaar\Carolyn Wonderland - Alcohol & Salvation 2001 Flac\08 Beer.wav

Peak level 65.1 % Track quality 100.0 % Test CRC 3E2C8DAC Copy CRC 3E2C8DAC Copy OK

Track 9

Filename C:\Klaar\Carolyn Wonderland - Alcohol & Salvation 2001 Flac\09 Pieces Of A Postcard.wav

Peak level 88.3 % Track quality 100.0 % Test CRC 10ECACFB Copy CRC 10ECACFB Copy OK

Track 10

Filename C:\Klaar\Carolyn Wonderland - Alcohol & Salvation 2001 Flac\10 Feed Me To The Lions.wav

Peak level 77.6 % Track quality 100.0 % Test CRC AA8527C3 Copy CRC AA8527C3 Copy OK

Track 11

Filename C:\Klaar\Carolyn Wonderland - Alcohol & Salvation 2001 Flac\11 Sober.wav

Peak level 87.6 % Track quality 100.0 % Test CRC EE25929F Copy CRC EE25929F Copy OK

Track 12

Filename C:\Klaar\Carolyn Wonderland - Alcohol & Salvation 2001 Flac\12 I'm The Man.wav

Peak level 87.0 % Track quality 100.0 % Test CRC 45DD5277 Copy CRC 45DD5277 Copy OK

Track 13

Filename C:\Klaar\Carolyn Wonderland - Alcohol & Salvation 2001 Flac\13 Gospel Song.wav

Peak level 80.8 % Track quality 100.0 % Test CRC 17FD0763 Copy CRC 17FD0763 Copy OK

Track 14

Filename C:\Klaar\Carolyn Wonderland - Alcohol & Salvation 2001 Flac\14 I Don't Wanna Fall For You.wav

Peak level 75.9 % Track quality 100.0 % Test CRC 724B15CC Copy CRC 724B15CC Copy OK

No errors occurred

End of status report
 
REM GENRE BluesREM DATE 2001REM DISCID AD0A6A0EREM COMMENT "ExactAudioCopy v0.99pb5"PERFORMER "Carolyn Wonderland"TITLE "Alcohol & Salvation"FILE "01 I'm Innocent.wav" WAVE TRACK 01 AUDIO TITLE "I'm Innocent" PERFORMER "Carolyn Wonderland" FLAGS DCP INDEX 01 00:00:00FILE "02 I'm Out Sick.wav" WAVE TRACK 02 AUDIO TITLE "I'm Out Sick" PERFORMER "Carolyn Wonderland" FLAGS DCP INDEX 01 00:00:00FILE "03 How Many Crowes.wav" WAVE TRACK 03 AUDIO TITLE "How Many Crowes" PERFORMER "Carolyn Wonderland" FLAGS DCP INDEX 01 00:00:00FILE "04 Brick Wall.wav" WAVE TRACK 04 AUDIO TITLE "Brick Wall" PERFORMER "Carolyn Wonderland" FLAGS DCP INDEX 01 00:00:00FILE "05 The Only Girl You Know.wav" WAVE TRACK 05 AUDIO TITLE "The Only Girl You Know" PERFORMER "Carolyn Wonderland" FLAGS DCP INDEX 01 00:00:00FILE "06 Worst Day Of My Life.wav" WAVE TRACK 06 AUDIO TITLE "Worst Day Of My Life" PERFORMER "Carolyn Wonderland" FLAGS DCP INDEX 01 00:00:00FILE "07 Bad Girl.wav" WAVE TRACK 07 AUDIO TITLE "Bad Girl" PERFORMER "Carolyn Wonderland" FLAGS DCP INDEX 01 00:00:00FILE "08 Beer.wav" WAVE TRACK 08 AUDIO TITLE "Beer" PERFORMER "Carolyn Wonderland" FLAGS DCP INDEX 01 00:00:00FILE "09 Pieces Of A Postcard.wav" WAVE TRACK 09 AUDIO TITLE "Pieces Of A Postcard" PERFORMER "Carolyn Wonderland" FLAGS DCP INDEX 01 00:00:00FILE "10 Feed Me To The Lions.wav" WAVE TRACK 10 AUDIO TITLE "Feed Me To The Lions" PERFORMER "Carolyn Wonderland" FLAGS DCP INDEX 01 00:00:00FILE "11 Sober.wav" WAVE TRACK 11 AUDIO TITLE "Sober" PERFORMER "Carolyn Wonderland" FLAGS DCP INDEX 01 00:00:00FILE "12 I'm The Man.wav" WAVE TRACK 12 AUDIO TITLE "I'm The Man" PERFORMER "Carolyn Wonderland" FLAGS DCP INDEX 01 00:00:00FILE "13 Gospel Song.wav" WAVE TRACK 13 AUDIO TITLE "Gospel Song" PERFORMER "Carolyn Wonderland" FLAGS DCP INDEX 01 00:00:00FILE "14 I Don't Wanna Fall For You.wav" WAVE TRACK 14 AUDIO TITLE "I Don't Wanna Fall For You" PERFORMER "Carolyn Wonderland" FLAGS DCP INDEX 01 00:00:00
 
AUDIOCHECKER v2.0 beta (build 457) - by Dester - opdester@freemail.hu~~~~~~~~~~~~~~~~~~~~~~~~~~~~~~~~~~-=== DO NOT EDIT THIS FILE! ===-

Path: ...\Carolyn Wonderland - Alcohol & Salvation (2001)

01 -=- 01 I'm Innocent.flac -=- CDDA (100%)02 -=- 02 I'm Out Sick.flac -=- CDDA (100%)03 -=- 03 How Many Crowes.flac -=- CDDA (100%)04 -=- 04 Brick Wall.flac -=- CDDA (100%)05 -=- 05 The Only Girl You Know.flac -=- CDDA (100%)06 -=- 06 Worst Day Of My Life.flac -=- CDDA (100%)07 -=- 07 Bad Girl.flac -=- CDDA (100%)08 -=- 08 Beer.flac -=- CDDA (100%)09 -=- 09 Pieces Of A Postcard.flac -=- CDDA (100%)10 -=- 10 Feed Me To The Lions.flac -=- CDDA (99%)11 -=- 11 Sober.flac -=- CDDA (100%)12 -=- 12 I'm The Man.flac -=- CDDA (100%)13 -=- 13 Gospel Song.flac -=- CDDA (100%)14 -=- 14 I Don't Wanna Fall For You.flac -=- CDDA (100%)

Summary 99,93% CDDA

74360676
Коврики взяты с Парадайза.

Трекер:  [ 27-Янв-2012 17:45 ]

  

Скачать .torrent

Размер .torrent файла 12 KB


Размер: 273 MB
Хэш (hash) релиза: 675f973d6bc624f6fe08ccff2837b458a874b929

Еще никто не оставлял запись к записи скачать торрент Carolyn Wonderland - Alcohol & Salvation - 2001, FLAC . Будь первым!

!Обратная связь