Скачать через торрент музыку Peter Green - Last Train To San Antone - 1992, FLAC бесплатно без регистрации torrent

Если у вас наблюдаются проблемы со скриншотами, переходом по ссылками, скачиванием торрентов - проблемы в блокировщике рекламы AdBlock. #хорошегоДня!


Статистика раздачи
Размер:  371 MB   |    Зарегистрирован:  5 лет 8 месяцев   |    .torrent скачан:  32 раза   |   
Раздают:  1  
   
Загрузка...
 
Автор Сообщение

Umakiro

avatar Umakiro


Peter Green - Last Train To San Antone

Жанр: Blues
Год выпуска диска: 1992
Производитель диска: Esoldun, UK
Аудио кодек: FLAC
Тип рипа: image+.cue
Битрейт аудио: lossless
Продолжительность: 65:28
Трэклист:
1.Proud Pinto
2.The Clown
3.In The Skies
4.Rubbing My Eyes
5.Bandit
6.Promised Land
7.Last Train To San Antone
8.Lost My Love
9.Momma Don't Cha Cry
10.One Woman Love
11.Tribal Dance
12.Just For You
13.Black woman
14.Funky Jam
Доп. информация:
Peter Green - Guitar
Lennox Langton - Percussions
Snowy White - Guitar
Kuma Horada - Bass
Rick Fenn - Guitar
Reg.Isadore - Drums
Peter Bardens - Keyboards
Godfrey McLean - Drums
 
Exact Audio Copy V0.99 prebeta 5 from 4. May 2009

EAC extraction logfile from 21. December 2009, 0:22

Peter Green / Last Train To San Antone

Used drive : HL-DT-STDVD-RAM GSA-H55N Adapter: 1 ID: 0

Read mode : SecureUtilize accurate stream : YesDefeat audio cache : YesMake use of C2 pointers : No

Read offset correction : 102Overread into Lead-In and Lead-Out : NoFill up missing offset samples with silence : YesDelete leading and trailing silent blocks : NoNull samples used in CRC calculations : YesUsed interface : Installed external ASPI interface

Used output format : User Defined EncoderSelected bitrate : 768 kBit/sQuality : HighAdd ID3 tag : NoCommand line compressor : C:\Program Files\Exact Audio Copy\Flac\flac.exeAdditional command line options : -8 -V -T "ARTIST=%a" -T "TITLE=%t" -T "ALBUM=%g" -T "DATE=%y" -T "TRACKNUMBER=%n" -T "GENRE=%m" -T "COMMENT=EAC FLAC -8" %s

TOC of the extracted CD

Track | Start | Length | Start sector | End sector --------------------------------------------------------- 1 | 0:00.33 | 3:39.50 | 33 | 16507 2 | 3:40.08 | 5:55.50 | 16508 | 43182 3 | 9:35.58 | 3:52.00 | 43183 | 60582 4 | 13:27.58 | 4:21.37 | 60583 | 80194 5 | 17:49.20 | 2:57.25 | 80195 | 93494 6 | 20:46.45 | 3:32.00 | 93495 | 109394 7 | 24:18.45 | 5:32.25 | 109395 | 134319 8 | 29:50.70 | 5:25.00 | 134320 | 158694 9 | 35:15.70 | 3:21.25 | 158695 | 173794 10 | 38:37.20 | 5:30.63 | 173795 | 198607 11 | 44:08.08 | 4:34.25 | 198608 | 219182 12 | 48:42.33 | 4:34.25 | 219183 | 239757 13 | 53:16.58 | 3:58.25 | 239758 | 257632 14 | 57:15.08 | 8:13.62 | 257633 | 294669

Range status and errors

Selected range

Filename E:\Nukrauti\FLAC\PGreen\Peter Green - Last Train To San Antone.wav

Peak level 97.7 % Range quality 99.9 % Test CRC 45160C78 Copy CRC 45160C78 Copy OK

No errors occurred

AccurateRip summary

Track 1 accurately ripped (confidence 1) [058D9488]Track 2 accurately ripped (confidence 1) [120EF0DC]Track 3 accurately ripped (confidence 1) [0D6C8FD9]Track 4 accurately ripped (confidence 1) [192A355D]Track 5 accurately ripped (confidence 1) [739AAB6E]Track 6 accurately ripped (confidence 1) [6EB4969A]Track 7 accurately ripped (confidence 1) [3D62D94D]Track 8 accurately ripped (confidence 1) [AE72A2BB]Track 9 accurately ripped (confidence 1) [9D1C405E]Track 10 accurately ripped (confidence 1) [A40BD3B4]Track 11 accurately ripped (confidence 1) [13BD7F15]Track 12 accurately ripped (confidence 1) [632AF7D1]Track 13 accurately ripped (confidence 1) [B04A495B]Track 14 cannot be verified as accurate (confidence 1) [DAD805A5], AccurateRip returned [C9DF4874]

13 track(s) accurately ripped 1 track(s) could not be verified as accurate

Some tracks could not be verified as accurate

End of status report


Трекер:  [ 27-Янв-2012 17:43 ]

  

Скачать .torrent

Размер .torrent файла 15 KB


Размер: 371 MB
Хэш (hash) релиза: 2b5e2ecc330fabec10ad16b39ed682b1e00b14f1

Еще никто не оставлял запись к записи скачать торрент Peter Green - Last Train To San Antone - 1992, FLAC . Будь первым!

!Обратная связь