Скачать через торрент музыку Peter Green - Blue Guitar - 1999, FLAC бесплатно без регистрации torrent

Если у вас наблюдаются проблемы со скриншотами, переходом по ссылками, скачиванием торрентов - проблемы в блокировщике рекламы AdBlock. #хорошегоДня!


Статистика раздачи
Размер:  288 MB   |    Зарегистрирован:  5 лет 8 месяцев   |    .torrent скачан:  34 раза   |   
Раздают:  1  
   
Загрузка...
 
Автор Сообщение

Umakiro

avatar Umakiro


Peter Green - Blue Guitar

Жанр: blues
Год выпуска диска: 1999
Производитель диска: Russia, Limited Blues
Аудио кодек: FLAC
Тип рипа: tracks+.cue
Битрейт аудио: lossless
Продолжительность: 50:40
Трэклист:
CD: Peter Green - Blue Guitar

01. Apostle [0:03:56.25]
02. A Fool No More [0:07:44.13]
03. Loser Two Times [0:04:31.00]
04. Slabo Day [0:05:08.12]
05. Cryin' Won't Bring You Back [0:05:07.63]
06. Gotta See Her Tonight [0:05:52.00]
07. Last Train To San Antone [0:05:32.62]
08. Woman Don't [0:05:05.13]
09. Whatcha Gonna Do? [0:03:52.50]
10. Walkin' The Road [0:03:48.25]
 
Exact Audio Copy V0.99 prebeta 4 from 23. January 2008

Отчёт EAC об извлечении, выполненном 3. февраля 2010, 12:41

Peter Green / Blue Guitar

Дисковод: SONY CD-RW CRX320E Adapter: 0 ID: 1

Режим чтения : ДостоверностьИспользование точного потока : ДаОтключение кэша аудио : ДаИспользование указателей C2 : Нет

Коррекция смещения при чтении : 6Способность читать области Lead-in и Lead-out : ДаЗаполнение пропущенных сэмплов тишиной : ДаУдаление блоков с тишиной в начале и конце : НетПри вычислениях CRC использовались нулевые сэмплы : ДаИнтерфейс : Установленный внешний ASPI-интерфейсОбработка зазоров : Добавлено к предыдущему треку

Выходной формат : Пользовательский кодировщикВыбранный битрейт : 128 kBit/sКачество : ВысокийДобавление ID3-тэга : НетУтилита сжатия : D:\Exact Audio Copy\Flac\flac.exeДополнительные параметры : -8 -V -T "ARTIST=%a" -T "TITLE=%t" -T "ALBUM=%g" -T "DATE=%y" -T "TRACKNUMBER=%n" -T "GENRE=%m" -T "COMMENT=EAC FLAC -8" %s

TOC извлечённого CD

Трек | Старт | Длительность | Начальный сектор | Конечный сектор --------------------------------------------------------------------- 1 | 0:00.00 | 3:56.25 | 0 | 17724 2 | 3:56.25 | 7:44.13 | 17725 | 52537 3 | 11:40.38 | 4:31.00 | 52538 | 72862 4 | 16:11.38 | 5:08.12 | 72863 | 95974 5 | 21:19.50 | 5:07.63 | 95975 | 119062 6 | 26:27.38 | 5:52.00 | 119063 | 145462 7 | 32:19.38 | 5:32.62 | 145463 | 170424 8 | 37:52.25 | 5:05.13 | 170425 | 193312 9 | 42:57.38 | 3:52.50 | 193313 | 210762 10 | 46:50.13 | 3:48.25 | 210763 | 227887

Трек 1

Имя файла E:\Фильм)\Новая папка\Peter Green - Blue Guitar\01. Peter Green - Apostle.wav

Длина предзазора 0:00:02.00

Пиковый уровень 66.2 % Качество трека 100.0 % CRC копии A5BBA901 Точность не определена (достоверность 2) [250B8BB6], AccurateRip вернул [4C862FE1] Копирование... OK

Трек 2

Имя файла E:\Фильм)\Новая папка\Peter Green - Blue Guitar\02. Peter Green - A Fool No More.wav

Длина предзазора 0:00:03.00

Пиковый уровень 93.9 % Качество трека 99.9 % CRC копии 9AB19A6B Точность не определена (достоверность 2) [0A8B77DB], AccurateRip вернул [58FD2502] Копирование... OK

Трек 3

Имя файла E:\Фильм)\Новая папка\Peter Green - Blue Guitar\03. Peter Green - Loser Two Times.wav

Длина предзазора 0:00:03.00

Пиковый уровень 98.5 % Качество трека 99.8 % CRC копии 54D02CCF Точность не определена (достоверность 2) [9B75FB48], AccurateRip вернул [FD258D66] Копирование... OK

Трек 4

Имя файла E:\Фильм)\Новая папка\Peter Green - Blue Guitar\04. Peter Green - Slabo Day.wav

Длина предзазора 0:00:03.00

Пиковый уровень 100.0 % Качество трека 99.9 % CRC копии C28FEC60 Точность не определена (достоверность 2) [AB3456C7], AccurateRip вернул [DD7C53A3] Копирование... OK

Трек 5

Имя файла E:\Фильм)\Новая папка\Peter Green - Blue Guitar\05. Peter Green - Cryin' Won't Bring You Back.wav

Длина предзазора 0:00:03.00

Пиковый уровень 100.0 % Качество трека 99.9 % CRC копии D3A9377A Точность не определена (достоверность 2) [A1275E05], AccurateRip вернул [B91A7904] Копирование... OK

Трек 6

Имя файла E:\Фильм)\Новая папка\Peter Green - Blue Guitar\06. Peter Green - Gotta See Her Tonight.wav

Длина предзазора 0:00:03.00

Пиковый уровень 50.3 % Качество трека 99.9 % CRC копии 441B24F3 Точность не определена (достоверность 2) [EDC798FE], AccurateRip вернул [7B2F0238] Копирование... OK

Трек 7

Имя файла E:\Фильм)\Новая папка\Peter Green - Blue Guitar\07. Peter Green - Last Train To San Antone.wav

Длина предзазора 0:00:03.00

Пиковый уровень 51.9 % Качество трека 99.9 % CRC копии 37BD990E Точность не определена (достоверность 2) [C44785CA], AccurateRip вернул [9AE567BC] Копирование... OK

Трек 8

Имя файла E:\Фильм)\Новая папка\Peter Green - Blue Guitar\08. Peter Green - Woman Don't.wav

Длина предзазора 0:00:03.00

Пиковый уровень 51.9 % Качество трека 99.9 % CRC копии CFAAE345 Точность не определена (достоверность 2) [9D57B7D9], AccurateRip вернул [7440C99C] Копирование... OK

Трек 9

Имя файла E:\Фильм)\Новая папка\Peter Green - Blue Guitar\09. Peter Green - Whatcha Gonna Do .wav

Длина предзазора 0:00:03.00

Пиковый уровень 56.7 % Качество трека 99.9 % CRC копии 9F52D43A Точность не определена (достоверность 2) [E0DD673C], AccurateRip вернул [44D4ED39] Копирование... OK

Трек 10

Имя файла E:\Фильм)\Новая папка\Peter Green - Blue Guitar\10. Peter Green - Walkin' The Road.wav

Длина предзазора 0:00:03.00

Пиковый уровень 45.3 % Качество трека 100.0 % CRC копии 483EAD02 Точность не определена (достоверность 2) [06AB6AD7], AccurateRip вернул [DA4CB230] Копирование... OK

Ни один трек не прошёл проверки на точностьВ вашей базе может быть иной вариант штамповки диска

Ошибок не произошло

Конец отчёта
REM GENRE Blues
REM DATE 1999
REM DISCID 900BDE0A
REM COMMENT "ExactAudioCopy v0.99pb4"
PERFORMER "Peter Green"
TITLE "Blue Guitar"
FILE "01. Peter Green - Apostle.wav" WAVE
TRACK 01 AUDIO
TITLE "Apostle"
PERFORMER "Peter Green"
INDEX 01 00:00:00
TRACK 02 AUDIO
TITLE "A Fool No More"
PERFORMER "Peter Green"
INDEX 00 03:53:25
FILE "02. Peter Green - A Fool No More.wav" WAVE
INDEX 01 00:00:00
TRACK 03 AUDIO
TITLE "Loser Two Times"
PERFORMER "Peter Green"
INDEX 00 07:41:13
FILE "03. Peter Green - Loser Two Times.wav" WAVE
INDEX 01 00:00:00
TRACK 04 AUDIO
TITLE "Slabo Day"
PERFORMER "Peter Green"
INDEX 00 04:28:00
FILE "04. Peter Green - Slabo Day.wav" WAVE
INDEX 01 00:00:00
TRACK 05 AUDIO
TITLE "Cryin' Won't Bring You Back"
PERFORMER "Peter Green"
INDEX 00 05:05:12
FILE "05. Peter Green - Cryin' Won't Bring You Back.wav" WAVE
INDEX 01 00:00:00
TRACK 06 AUDIO
TITLE "Gotta See Her Tonight"
PERFORMER "Peter Green"
INDEX 00 05:04:63
FILE "06. Peter Green - Gotta See Her Tonight.wav" WAVE
INDEX 01 00:00:00
TRACK 07 AUDIO
TITLE "Last Train To San Antone"
PERFORMER "Peter Green"
INDEX 00 05:49:00
FILE "07. Peter Green - Last Train To San Antone.wav" WAVE
INDEX 01 00:00:00
TRACK 08 AUDIO
TITLE "Woman Don't"
PERFORMER "Peter Green"
INDEX 00 05:29:62
FILE "08. Peter Green - Woman Don't.wav" WAVE
INDEX 01 00:00:00
TRACK 09 AUDIO
TITLE "Whatcha Gonna Do?"
PERFORMER "Peter Green"
INDEX 00 05:02:13
FILE "09. Peter Green - Whatcha Gonna Do .wav" WAVE
INDEX 01 00:00:00
TRACK 10 AUDIO
TITLE "Walkin' The Road"
PERFORMER "Peter Green"
INDEX 00 03:49:50
FILE "10. Peter Green - Walkin' The Road.wav" WAVE
INDEX 01 00:00:00
 
 
Tau analyzer - 1.2 CDDA


Трекер:  [ 27-Янв-2012 17:42 ]

  

Скачать .torrent

Размер .torrent файла 12 KB


Размер: 288 MB
Хэш (hash) релиза: 4294a47853e972282b40aa222987784fba1dd6a5

Еще никто не оставлял запись к записи скачать торрент Peter Green - Blue Guitar - 1999, FLAC . Будь первым!

!Обратная связь