Скачать через торрент музыку Peter Green - Baby When The Sun Goes Down - 1992 бесплатно без регистрации torrent

Если у вас наблюдаются проблемы со скриншотами, переходом по ссылками, скачиванием торрентов - проблемы в блокировщике рекламы AdBlock. #хорошегоДня!


Статистика раздачи
Размер:  645 MB   |    Зарегистрирован:  5 лет 8 месяцев   |    .torrent скачан:  33 раза   |   
Раздают:  1  
   
Загрузка...
 
Автор Сообщение

Umakiro

avatar Umakiro


Peter Green - Baby When The Sun Goes Down

Жанр: blues
Год выпуска диска: 1992
Производитель диска: Gegmany. Castle Communications
Тип рипа: FLAC, tracks+.cue, lossless
Битрейт аудио: lossless
Продолжительность: 104:25

CD: Peter Green - Baby When The Sun Goes Down [CD1]

01. Loser Two Times [0:04:32.15]
02. Cryin' Won't Bring You Back [0:05:08.52]
03. Proud Pinto [0:03:38.10]
04. Got To See Her Tonight [0:05:49.13]
05. Last Train To San Antone [0:05:32.45]
06. What Am I Doing Here [0:03:28.45]
07. Carry My Love [0:05:00.32]
08. Bullet In The Sky [0:03:23.10]
09. Baby When The Sun Goes Down [0:05:35.63]
10. Walkin' The Road [0:03:52.67]
11. In The Skies [0:03:49.05]
12. Dust My Broom [0:04:19.13]

CD: Peter Green - Collection Disc 2

01. White Sky [0:08:50.37]
02. Indian Lover [0:03:31.55]
03. Apostle [0:03:12.68]
04. Same Old Blues [0:03:45.45]
05. Six String Guitar [0:04:34.65]
06. A Fool No More [0:07:45.27]
07. The Clown [0:06:04.03]
08. Born On The Wild Side [0:03:01.25]
09. Seven Stars [0:03:06.55]
10. You Won't See Me Anymore [0:03:38.27]
11. Strangers Blues [0:04:53.73]
 
Exact Audio Copy V0.99 prebeta 4 from 23. January 2008

EAC extraction logfile from 2. February 2010, 10:53

Peter Green / Baby When The Sun Goes Down [CD1]

Used drive : SONY CD-RW CRX320E Adapter: 0 ID: 1

Read mode : SecureUtilize accurate stream : YesDefeat audio cache : YesMake use of C2 pointers : No

Read offset correction : 6Overread into Lead-In and Lead-Out : YesFill up missing offset samples with silence : YesDelete leading and trailing silent blocks : NoNull samples used in CRC calculations : YesUsed interface : Installed external ASPI interfaceGap handling : Appended to previous track

Used output format : User Defined EncoderSelected bitrate : 128 kBit/sQuality : HighAdd ID3 tag : NoCommand line compressor : D:\Exact Audio Copy\Flac\flac.exeAdditional command line options : -8 -V -T "ARTIST=%a" -T "TITLE=%t" -T "ALBUM=%g" -T "DATE=%y" -T "TRACKNUMBER=%n" -T "GENRE=%m" -T "COMMENT=EAC FLAC -8" %s

TOC of the extracted CD

Track | Start | Length | Start sector | End sector --------------------------------------------------------- 1 | 0:00.00 | 4:32.15 | 0 | 20414 2 | 4:32.15 | 5:08.52 | 20415 | 43566 3 | 9:40.67 | 3:38.10 | 43567 | 59926 4 | 13:19.02 | 5:49.13 | 59927 | 86114 5 | 19:08.15 | 5:32.45 | 86115 | 111059 6 | 24:40.60 | 3:28.45 | 111060 | 126704 7 | 28:09.30 | 5:00.32 | 126705 | 149236 8 | 33:09.62 | 3:23.10 | 149237 | 164471 9 | 36:32.72 | 5:35.63 | 164472 | 189659 10 | 42:08.60 | 3:52.67 | 189660 | 207126 11 | 46:01.52 | 3:49.05 | 207127 | 224306 12 | 49:50.57 | 4:19.13 | 224307 | 243744

Track 1

Filename C:\Documents and Settings\Admin\Рабочий стол\Peter Green\01. Peter Green - Loser Two Times.wav

Pre-gap length 0:00:02.00

Peak level 98.4 % Track quality 100.0 % Copy CRC 9497B764 Accurately ripped (confidence 1) [CE550E93] Copy OK

Track 2

Filename C:\Documents and Settings\Admin\Рабочий стол\Peter Green\02. Peter Green - Cryin' Won't Bring You Back.wav

Pre-gap length 0:00:02.45

Peak level 98.4 % Track quality 99.8 % Copy CRC 1A44B562 Accurately ripped (confidence 1) [BD2D50E5] Copy OK

Track 3

Filename C:\Documents and Settings\Admin\Рабочий стол\Peter Green\03. Peter Green - Proud Pinto.wav

Pre-gap length 0:00:03.12

Peak level 97.9 % Track quality 99.9 % Copy CRC 70D04523 Accurately ripped (confidence 1) [90DEC304] Copy OK

Track 4

Filename C:\Documents and Settings\Admin\Рабочий стол\Peter Green\04. Peter Green - Got To See Her Tonight.wav

Pre-gap length 0:00:03.27

Peak level 99.5 % Track quality 99.9 % Copy CRC 1800391F Accurately ripped (confidence 1) [19E66BFE] Copy OK

Track 5

Filename C:\Documents and Settings\Admin\Рабочий стол\Peter Green\05. Peter Green - Last Train To San Antone.wav

Pre-gap length 0:00:02.55

Peak level 99.3 % Track quality 99.9 % Copy CRC A670A2E7 Accurately ripped (confidence 1) [9793AB28] Copy OK

Track 6

Filename C:\Documents and Settings\Admin\Рабочий стол\Peter Green\06. Peter Green - What Am I Doing Here.wav

Pre-gap length 0:00:02.25

Peak level 76.8 % Track quality 100.0 % Copy CRC 4D836726 Accurately ripped (confidence 1) [EE6D5016] Copy OK

Track 7

Filename C:\Documents and Settings\Admin\Рабочий стол\Peter Green\07. Peter Green - Carry My Love.wav

Pre-gap length 0:00:01.48

Peak level 99.2 % Track quality 99.9 % Copy CRC 0178735D Accurately ripped (confidence 1) [721939C5] Copy OK

Track 8

Filename C:\Documents and Settings\Admin\Рабочий стол\Peter Green\08. Peter Green - Bullet In The Sky.wav

Pre-gap length 0:00:02.35

Peak level 99.2 % Track quality 99.8 % Copy CRC B871135A Accurately ripped (confidence 1) [740F778E] Copy OK

Track 9

Filename C:\Documents and Settings\Admin\Рабочий стол\Peter Green\09. Peter Green - Baby When The Sun Goes Down.wav

Pre-gap length 0:00:02.30

Peak level 98.4 % Track quality 99.9 % Copy CRC AC4B5B43 Accurately ripped (confidence 1) [516BB199] Copy OK

Track 10

Filename C:\Documents and Settings\Admin\Рабочий стол\Peter Green\10. Peter Green - Walkin' The Road.wav

Pre-gap length 0:00:02.08

Peak level 92.5 % Track quality 99.9 % Copy CRC 84AC9670 Accurately ripped (confidence 1) [F7CE51A2] Copy OK

Track 11

Filename C:\Documents and Settings\Admin\Рабочий стол\Peter Green\11. Peter Green - In The Skies.wav

Pre-gap length 0:00:03.17

Peak level 99.0 % Track quality 99.9 % Copy CRC 32E46CE3 Accurately ripped (confidence 1) [D732712F] Copy OK

Track 12

Filename C:\Documents and Settings\Admin\Рабочий стол\Peter Green\12. Peter Green - Dust My Broom.wav

Pre-gap length 0:00:02.25

Suspicious position 0:04:18

Peak level 88.9 % Track quality 99.7 % Copy CRC C1EAECB1 Cannot be verified as accurate (confidence 1) [B919A9E3], AccurateRip returned [FE0E95D5] Copy finished

11 track(s) accurately ripped 1 track(s) could not be verified as accurate

Some tracks could not be verified as accurate

There were errors

End of status report

Exact Audio Copy V0.99 prebeta 4 from 23. January 2008

EAC extraction logfile from 2. February 2010, 17:51

Peter Green / Collection Disc 2

Used drive : SONY CD-RW CRX320E Adapter: 0 ID: 1

Read mode : SecureUtilize accurate stream : YesDefeat audio cache : YesMake use of C2 pointers : No

Read offset correction : 6Overread into Lead-In and Lead-Out : YesFill up missing offset samples with silence : YesDelete leading and trailing silent blocks : NoNull samples used in CRC calculations : YesUsed interface : Installed external ASPI interfaceGap handling : Appended to previous track

Used output format : User Defined EncoderSelected bitrate : 128 kBit/sQuality : HighAdd ID3 tag : NoCommand line compressor : D:\Exact Audio Copy\Flac\flac.exeAdditional command line options : -8 -V -T "ARTIST=%a" -T "TITLE=%t" -T "ALBUM=%g" -T "DATE=%y" -T "TRACKNUMBER=%n" -T "GENRE=%m" -T "COMMENT=EAC FLAC -8" %s

TOC of the extracted CD

Track | Start | Length | Start sector | End sector --------------------------------------------------------- 1 | 0:00.00 | 8:50.37 | 0 | 39786 2 | 8:50.37 | 3:31.55 | 39787 | 55666 3 | 12:22.17 | 3:12.68 | 55667 | 70134 4 | 15:35.10 | 3:45.45 | 70135 | 87054 5 | 19:20.55 | 4:34.65 | 87055 | 107669 6 | 23:55.45 | 7:45.27 | 107670 | 142571 7 | 31:40.72 | 6:04.03 | 142572 | 169874 8 | 37:45.00 | 3:01.25 | 169875 | 183474 9 | 40:46.25 | 3:06.55 | 183475 | 197479 10 | 43:53.05 | 3:38.27 | 197480 | 213856 11 | 47:31.32 | 4:53.73 | 213857 | 235904

Track 1

Filename C:\Documents and Settings\Admin\Рабочий стол\Peter Green\01. Peter Green - White Sky.wav

Pre-gap length 0:00:02.00

Peak level 98.4 % Track quality 99.8 % Copy CRC 90BDAD52 Cannot be verified as accurate (confidence 1) [146DC3EF], AccurateRip returned [A7ADA743] Copy OK

Track 2

Filename C:\Documents and Settings\Admin\Рабочий стол\Peter Green\02. Peter Green - Indian Lover.wav

Pre-gap length 0:00:02.15

Suspicious position 0:01:17 - 0:01:18

Peak level 98.8 % Track quality 99.2 % Copy CRC 5B95C8E1 Cannot be verified as accurate (confidence 1) [CEE40F0F], AccurateRip returned [68FEE6C2] Copy finished

Track 3

Filename C:\Documents and Settings\Admin\Рабочий стол\Peter Green\03. Peter Green - Apostle.wav

Pre-gap length 0:00:02.25

Peak level 57.8 % Track quality 99.9 % Copy CRC C5D63240 Accurately ripped (confidence 1) [60C21810] Copy OK

Track 4

Filename C:\Documents and Settings\Admin\Рабочий стол\Peter Green\04. Peter Green - Same Old Blues.wav

Pre-gap length 0:00:02.23

Peak level 93.0 % Track quality 100.0 % Copy CRC 9B0F64F2 Accurately ripped (confidence 1) [DDD7B393] Copy OK

Track 5

Filename C:\Documents and Settings\Admin\Рабочий стол\Peter Green\05. Peter Green - Six String Guitar.wav

Pre-gap length 0:00:02.03

Suspicious position 0:02:07 - 0:02:08

Peak level 99.9 % Track quality 97.1 % Copy CRC F7E185F6 Cannot be verified as accurate (confidence 1) [1404CADF], AccurateRip returned [295137C4] Copy finished

Track 6

Filename C:\Documents and Settings\Admin\Рабочий стол\Peter Green\06. Peter Green - A Fool No More.wav

Pre-gap length 0:00:03.58

Peak level 94.7 % Track quality 99.9 % Copy CRC E67C61F4 Accurately ripped (confidence 1) [E0EC73F9] Copy OK

Track 7

Filename C:\Documents and Settings\Admin\Рабочий стол\Peter Green\07. Peter Green - The Clown.wav

Pre-gap length 0:00:01.55

Suspicious position 0:05:30 - 0:05:31

Peak level 91.6 % Track quality 97.9 % Copy CRC 72AD974E Cannot be verified as accurate (confidence 1) [0FA50BCD], AccurateRip returned [B960EBA7] Copy finished

Track 8

Filename C:\Documents and Settings\Admin\Рабочий стол\Peter Green\08. Peter Green - Born On The Wild Side.wav

Pre-gap length 0:00:03.15

Peak level 90.1 % Track quality 99.9 % Copy CRC A3F387F6 Accurately ripped (confidence 1) [841BF0F8] Copy OK

Track 9

Filename C:\Documents and Settings\Admin\Рабочий стол\Peter Green\09. Peter Green - Seven Stars.wav

Pre-gap length 0:00:02.05

Peak level 91.7 % Track quality 100.0 % Copy CRC EF3BC6B1 Accurately ripped (confidence 1) [6EE93B25] Copy OK

Track 10

Filename C:\Documents and Settings\Admin\Рабочий стол\Peter Green\10. Peter Green - You Won't See Me Anymore.wav

Pre-gap length 0:00:01.68

Peak level 98.8 % Track quality 99.8 % Copy CRC 81509FA3 Accurately ripped (confidence 1) [0DC4F8FC] Copy OK

Track 11

Filename C:\Documents and Settings\Admin\Рабочий стол\Peter Green\11. Peter Green - Strangers Blues.wav

Pre-gap length 0:00:02.10

Peak level 97.8 % Track quality 100.0 % Copy CRC 98DBE347 Accurately ripped (confidence 1) [B969FE7D] Copy OK

7 track(s) accurately ripped 4 track(s) could not be verified as accurate

Some tracks could not be verified as accurate

There were errors

End of status report
[pre]


Трекер:  [ 27-Янв-2012 17:42 ]

  

Скачать .torrent

Размер .torrent файла 15 KB


Размер: 645 MB
Хэш (hash) релиза: 592d17d21f015c3025c749abfc40e2645d94547d

Еще никто не оставлял запись к записи скачать торрент Peter Green - Baby When The Sun Goes Down - 1992 . Будь первым!

!Обратная связь