Скачать через торрент музыку Peter Green - The Very Best Of Peter Green - 1998, FLAC бесплатно без регистрации torrent

Если у вас наблюдаются проблемы со скриншотами, переходом по ссылками, скачиванием торрентов - проблемы в блокировщике рекламы AdBlock. #хорошегоДня!


Статистика раздачи
Размер:  343 MB   |    Зарегистрирован:  5 лет 8 месяцев   |    .torrent скачан:  35 раз   |   
Раздают:  1  
   
Загрузка...
 
Автор Сообщение

Umakiro

avatar Umakiro


Peter Green - The Very Best Of Peter Green

Жанр: blues
Год выпуска диска: 1998
Производитель диска: Wise Buy
Аудио кодек: FLAC
Тип рипа: image+.cue
Битрейт аудио: lossless
Продолжительность: 62:43
Трэклист:
01. In the skies [0:03:50.53]
02. Slaybo day [0:05:08.20]
03. Apostle [0:03:13.72]
04. Loser two times [0:04:33.45]
05. Baby when the sun goes down [0:05:38.00]
06. One woman love [0:05:34.30]
07. Time for me to go [0:03:56.53]
08. The clown [0:06:06.02]
09. Proud pinto [0:03:44.45]
10. Bullet in the sky [0:03:25.43]
11. Last train to San Antone [0:05:34.67]
12. Watcha gonna do [0:03:52.18]
13. Woman don't [0:05:05.32]
14. Bandit [0:02:57.40]
Доп. информация: Источник: сеть… Автор: mfrwiz
(Released in 1998 on the Wise Buy label, catalogue number(s): WB 886002.)
 
Exact Audio Copy V0.99 prebeta 5 from 4. May 2009

EAC extraction logfile from 14. June 2009, 10:36

Peter Green / The Very Best Of Peter Green

Used drive : Pioneer BDR-203BK Adapter: 7 ID: 0

Read mode : SecureUtilize accurate stream : YesDefeat audio cache : YesMake use of C2 pointers : No

Read offset correction : 6Overread into Lead-In and Lead-Out : NoFill up missing offset samples with silence : YesDelete leading and trailing silent blocks : NoNull samples used in CRC calculations : YesUsed interface : Native Win32 interface for Win NT & 2000

Used output format : User Defined EncoderSelected bitrate : 128 kBit/sQuality : HighAdd ID3 tag : NoCommand line compressor : C:\Programmi\FLAC\flac.exeAdditional command line options : -5 -V -T "ARTIST=%a" -T "TITLE=%t" -T "ALBUM=%g" -T "DATE=%y" -T "TRACKNUMBER=%n" -T "GENRE=%m" -T "COMMENT=EAC Flac 1.2.1b -5" %s

TOC of the extracted CD

Track | Start | Length | Start sector | End sector --------------------------------------------------------- 1 | 0:00.00 | 3:50.53 | 0 | 17302 2 | 3:50.53 | 5:08.20 | 17303 | 40422 3 | 8:58.73 | 3:13.72 | 40423 | 54969 4 | 12:12.70 | 4:33.45 | 54970 | 75489 5 | 16:46.40 | 5:38.00 | 75490 | 100839 6 | 22:24.40 | 5:34.30 | 100840 | 125919 7 | 27:58.70 | 3:56.53 | 125920 | 143672 8 | 31:55.48 | 6:06.02 | 143673 | 171124 9 | 38:01.50 | 3:44.45 | 171125 | 187969 10 | 41:46.20 | 3:25.43 | 187970 | 203387 11 | 45:11.63 | 5:34.67 | 203388 | 228504 12 | 50:46.55 | 3:52.18 | 228505 | 245922 13 | 54:38.73 | 5:05.32 | 245923 | 268829 14 | 59:44.30 | 2:57.40 | 268830 | 282144

Range status and errors

Selected range

Filename M:\Musica_3\=Da Condividere\The Very Best Of Peter Green (2001)\Nuova Cartella\TVBOPG\The Very Best Of Peter Green (2001) @ Flac\Peter Green - The Very Best Of Peter Green.wav

Peak level 98.3 % Range quality 99.9 % Copy CRC 165154A0 Copy OK

No errors occurred

End of status report
 
REM GENRE RockREM DATE 1998REM DISCID B50EB10EREM COMMENT "ExactAudioCopy v0.99pb5"PERFORMER "Peter Green"TITLE "The Very Best Of Peter Green"FILE "Peter Green - The Very Best Of Peter Green.flac" WAVE TRACK 01 AUDIO TITLE "In the skies" PERFORMER "Peter Green" INDEX 01 00:00:00 TRACK 02 AUDIO TITLE "Slaybo day" PERFORMER "Peter Green" INDEX 00 03:48:53 INDEX 01 03:50:53 TRACK 03 AUDIO TITLE "Apostle" PERFORMER "Peter Green" INDEX 00 08:56:73 INDEX 01 08:58:73 TRACK 04 AUDIO TITLE "Loser two times" PERFORMER "Peter Green" INDEX 00 12:10:70 INDEX 01 12:12:70 TRACK 05 AUDIO TITLE "Baby when the sun goes down" PERFORMER "Peter Green" INDEX 00 16:44:40 INDEX 01 16:46:40 TRACK 06 AUDIO TITLE "One woman love" PERFORMER "Peter Green" INDEX 00 22:22:40 INDEX 01 22:24:40 TRACK 07 AUDIO TITLE "Time for me to go" PERFORMER "Peter Green" INDEX 00 27:56:70 INDEX 01 27:58:70 TRACK 08 AUDIO TITLE "The clown" PERFORMER "Peter Green" INDEX 00 31:53:48 INDEX 01 31:55:48 TRACK 09 AUDIO TITLE "Proud pinto" PERFORMER "Peter Green" INDEX 00 37:59:50 INDEX 01 38:01:50 TRACK 10 AUDIO TITLE "Bullet in the sky" PERFORMER "Peter Green" INDEX 00 41:44:20 INDEX 01 41:46:20 TRACK 11 AUDIO TITLE "Last train to San Antone" PERFORMER "Peter Green" INDEX 00 45:09:63 INDEX 01 45:11:63 TRACK 12 AUDIO TITLE "Watcha gonna do" PERFORMER "Peter Green" INDEX 00 50:44:55 INDEX 01 50:46:55 TRACK 13 AUDIO TITLE "Woman don't" PERFORMER "Peter Green" INDEX 00 54:36:73 INDEX 01 54:38:73 TRACK 14 AUDIO TITLE "Bandit" PERFORMER "Peter Green" INDEX 00 59:42:30 INDEX 01 59:44:30
 
-----------------------

DON'T MODIFY THIS FILE

-----------------------

PERFORMER: auCDtect Task Manager, ver. 1.0.3 B1 build 1.0.3.0Copyright (c) 2008, 2009 y-soft. All rights reservedhttp://y-soft.110mb.com

ANALYZER: auCDtect: CD records authenticity detector, version 0.8.2Copyright (c) 2004 Oleg Berngardt. All rights reserved.Copyright (c) 2004 Alexander Djourik. All rights reserved.

FILE: Peter Green - The Very Best Of Peter Green.flac Size: 359435942 Hash: 2ADD94F944084EE1C5F0FB79643E04C8 Accuracy: -m0 Conclusion: CDDA 100% Signature: 7D575C856EC7C64A8C2C1A29D39D0EE7F7FB4EE9


Трекер:  [ 27-Янв-2012 17:41 ]

  

Скачать .torrent

Размер .torrent файла 14 KB


Размер: 343 MB
Хэш (hash) релиза: 195e5c153143f70ddb288ac6f77f5e20013b1109

Еще никто не оставлял запись к записи скачать торрент Peter Green - The Very Best Of Peter Green - 1998, FLAC . Будь первым!

!Обратная связь