Скачать через торрент музыку Wolf Mail - The Basement Session - 2011, FLAC бесплатно без регистрации torrent

Если у вас наблюдаются проблемы со скриншотами, переходом по ссылками, скачиванием торрентов - проблемы в блокировщике рекламы AdBlock. #хорошегоДня!


Статистика раздачи
Размер:  344 MB   |    Зарегистрирован:  5 лет 8 месяцев   |    .torrent скачан:  37 раз   |   
Раздают:  1  
   
Загрузка...
 
Автор Сообщение

Umakiro

avatar Umakiro


Wolf Mail

The Basement Session
Жанр: Blues-Rock
Страна-производитель диска: USA
Год издания диска: 2011
Издатель (лейбл): ZKS Records
Номер по каталогу: ZKS061711
Аудиокодек: FLAC (*.flac)
Тип рипа: image+.cue
Битрейт аудио: lossless
Продолжительность: 52:34
Источник (релизер): ©СЁРФ-Маrаtones aka izia1956
Наличие сканов в содержимом раздачи: да


01. 100 Years (6:21)
02. It Serves Me Right (6:27)
03. Need Your Love (6:14)
04. Going Down (7:09)
05. Shake'em Up (4:21)
06. Solid Ground (4:36)
07. Upper Hand (5:23)
08. Peter Green's Tribute (0:21)
09. Tush (3:17)
10. Sweet Soul (4:23)
11. Fire (4:04)
 
Exact Audio Copy V0.99 prebeta 4 from 23. January 2008

Отчёт EAC об извлечении, выполненном 7. января 2012, 12:42

Wolf Mail / The Basement Session

Дисковод: PLEXTOR DVDR PX-880SA Adapter: 1 ID: 1

Режим чтения : ДостоверностьИспользование точного потока : ДаОтключение кэша аудио : ДаИспользование указателей C2 : Нет

Коррекция смещения при чтении : 6Способность читать области Lead-in и Lead-out : НетЗаполнение пропущенных сэмплов тишиной : ДаУдаление блоков с тишиной в начале и конце : НетПри вычислениях CRC использовались нулевые сэмплы : ДаИнтерфейс : Встроенный Win32-интерфейс для Win NT/2000

Выходной формат : Пользовательский кодировщикВыбранный битрейт : 1024 kBit/sКачество : ВысокийДобавление ID3-тэга : НетУтилита сжатия : C:\Program Files\Exact Audio Copy\FLAC\FLAC.EXEДополнительные параметры : -6 -V -T "ARTIST=%a" -T "TITLE=%t" -T "ALBUM=%g" -T "DATE=%y" -T "TRACKNUMBER=%n" -T "GENRE=%m" -T "COMMENT=%e" %s -o %d

TOC извлечённого CD

Трек | Старт | Длительность | Начальный сектор | Конечный сектор --------------------------------------------------------------------- 1 | 0:00.00 | 6:20.49 | 0 | 28548 2 | 6:20.49 | 6:27.06 | 28549 | 57579 3 | 12:47.55 | 6:13.73 | 57580 | 85627 4 | 19:01.53 | 7:08.50 | 85628 | 117777 5 | 26:10.28 | 4:21.11 | 117778 | 137363 6 | 30:31.39 | 4:35.54 | 137364 | 158042 7 | 35:07.18 | 5:23.04 | 158043 | 182271 8 | 40:30.22 | 0:20.54 | 182272 | 183825 9 | 40:51.01 | 3:16.39 | 183826 | 198564 10 | 44:07.40 | 4:23.04 | 198565 | 218293 11 | 48:30.44 | 4:03.46 | 218294 | 236564

Характеристики диапазона извлечения и сообщения об ошибках

Выбранный диапазон

Имя файла J:\BitComet\Wolf Mail - The Basement Session(2011)(flac)\Wolf Mail - The Basement Session.wav

Пиковый уровень 100.0 % Качество диапазона 100.0 % CRC теста F2390043 CRC копии F2390043 Копирование... OK

Ошибок не произошло

AccurateRip: сводка

Трек 1 нет в базе данныхТрек 2 нет в базе данныхТрек 3 нет в базе данныхТрек 4 нет в базе данныхТрек 5 нет в базе данныхТрек 6 нет в базе данныхТрек 7 нет в базе данныхТрек 8 нет в базе данныхТрек 9 нет в базе данныхТрек 10 нет в базе данныхТрек 11 нет в базе данных

Ни одного трека нет в базе AccurateRip

Конец отчёта
Доп. информация: БЛЮЗ-МАРАФОН - " С БЛЮЗом по жизни" продолжается!!!
С БЛЮЗом в Новом Году: наш старый знакомый - Wolf Mail!!!

Рип сделан собственноручно.
Сканы в папке.

Ознакомиться(прослушать) можно здесь

Рип от ©СЁРФ-Маrаtones aka izia1956

Трекер:  [ 27-Янв-2012 17:41 ]

  

Скачать .torrent

Размер .torrent файла 14 KB


Размер: 344 MB
Хэш (hash) релиза: 57a414d026846d289c4cf0b460775b9b135eed38

Еще никто не оставлял запись к записи скачать торрент Wolf Mail - The Basement Session - 2011, FLAC . Будь первым!

!Обратная связь