Скачать через торрент музыку Jon Lord - Blues Project - Live - 2011, APE бесплатно без регистрации torrent

Если у вас наблюдаются проблемы со скриншотами, переходом по ссылками, скачиванием торрентов - проблемы в блокировщике рекламы AdBlock. #хорошегоДня!


Статистика раздачи
Размер:  451 MB   |    Зарегистрирован:  5 лет 8 месяцев   |    .torrent скачан:  53 раза   |   
Раздают:  1  
   
Загрузка...
 
Автор Сообщение

Umakiro

avatar Umakiro


Jon Lord - Blues Project - Live

Жанр: Blues-Rock
Страна-производитель диска: Germany
Год издания диска: 2011
Издатель (лейбл): Serious Comedy
Номер по каталогу: SC 10022011
Аудиокодек: APE (*.ape)
Тип рипа: image+.cue
Битрейт аудио: lossless
Продолжительность: 01:05:45
Источник (релизер): я...
Наличие сканов в содержимом раздачи: да
Треклист:
01. Back At The Chicken Shack [0:06:14.61]
02. Houchie Couchie Man [0:06:28.69]
03. Wishing Well [0:05:39.12]
04. It Never Rains But It Pours [0:04:13.39]
05. Fog on the Highway [0:07:34.69]
06. Lazy [0:04:51.19]
07. Walkin' Blues [0:05:48.35]
08. Way Down In The Hole [0:03:22.64]
09. Houston [0:04:30.71]
10. Respect Yourself [0:06:33.67]
11. Blind Man [0:05:16.44]
12. I´m a Man [0:05:09.58]
 
Exact Audio Copy V1.0 beta 1 from 15. November 2010

EAC extraction logfile from 24. January 2012, 22:55

Jon Lord / Blues Project Live

Used drive : PIONEER DVD-RW DVR-112D Adapter: 1 ID: 1

Read mode : SecureUtilize accurate stream : YesDefeat audio cache : YesMake use of C2 pointers : No

Read offset correction : 48Overread into Lead-In and Lead-Out : NoFill up missing offset samples with silence : YesDelete leading and trailing silent blocks : NoNull samples used in CRC calculations : YesUsed interface : Native Win32 interface for Win NT & 2000

Used output format : Monkey's Audio (без потерь)Selected bitrate : High Lossless CompressionQuality : HighAdd ID3 tag : NoCommand line compressor : C:\Program Files\Monkey's Audio\MAC.exe

TOC of the extracted CD

Track | Start | Length | Start sector | End sector --------------------------------------------------------- 1 | 0:00.00 | 6:14.61 | 0 | 28110 2 | 6:14.61 | 6:28.69 | 28111 | 57279 3 | 12:43.55 | 5:39.12 | 57280 | 82716 4 | 18:22.67 | 4:13.39 | 82717 | 101730 5 | 22:36.31 | 7:34.69 | 101731 | 135849 6 | 30:11.25 | 4:51.19 | 135850 | 157693 7 | 35:02.44 | 5:48.35 | 157694 | 183828 8 | 40:51.04 | 3:22.64 | 183829 | 199042 9 | 44:13.68 | 4:30.71 | 199043 | 219363 10 | 48:44.64 | 6:33.67 | 219364 | 248905 11 | 55:18.56 | 5:16.44 | 248906 | 272649 12 | 60:35.25 | 5:09.58 | 272650 | 295882

Range status and errors

Selected range

Filename D:\EAC copy\Jon Lord_Blues Project Live\Jon Lord - Blues Project Live.wav

Peak level 99.8 % Extraction speed 0.6 X Range quality 100.0 % Test CRC 8857838A Copy CRC 8857838A Copy OK

No errors occurred

AccurateRip summary

Track 1 accurately ripped (confidence 2) [1A673369]Track 2 accurately ripped (confidence 2) [E1D215E9]Track 3 accurately ripped (confidence 2) [506FB033]Track 4 accurately ripped (confidence 2) [AA4FDDEC]Track 5 accurately ripped (confidence 2) [5017CEE7]Track 6 accurately ripped (confidence 2) [3F8B0BB6]Track 7 accurately ripped (confidence 2) [F5AFDA84]Track 8 accurately ripped (confidence 2) [AAE9A4B9]Track 9 accurately ripped (confidence 2) [DD99C759]Track 10 accurately ripped (confidence 2) [718A1A6D]Track 11 not present in databaseTrack 12 accurately ripped (confidence 2) [FB3B352E]

11 трек(и) скопированы точно 1 трек(и) не содержатся в базе AccurateRip

Some tracks could not be verified as accurate

End of status report

==== Log checksum 46EB620B5DA5FED6409BA338EED5BC74C1908C5CF710A52474B9086A524A4832 ====
 
-----------------------

DON'T MODIFY THIS FILE

-----------------------

PERFORMER: auCDtect Task Manager, ver. 1.5.1RC4 build 1.5.1.5Copyright (c) 2008-2010 y-soft. All rights reservedhttp://y-soft.org

ANALYZER: auCDtect: CD records authenticity detector, version 0.8.2Copyright (c) 2004 Oleg Berngardt. All rights reserved.Copyright (c) 2004 Alexander Djourik. All rights reserved.

FILE: Jon Lord - Blues Project Live.ape Size: 460321608 Hash: 4EB254901DCA3FBC86C1B4D1072CC2C6 Accuracy: -m0 Conclusion: CDDA 100% Signature: B7B797BABCAA055A42082ABC8FBC5CF4F353D459


Трекер:  [ 27-Янв-2012 17:40 ]

  

Скачать .torrent

Размер .torrent файла 18 KB


Размер: 451 MB
Хэш (hash) релиза: add77bbcf056a29c1146ec48204a9bc424cb2f05

Еще никто не оставлял запись к записи скачать торрент Jon Lord - Blues Project - Live - 2011, APE . Будь первым!

!Обратная связь