Скачать через торрент музыку Chris Duarte Group - Infinite Energy - 2010, FLAC бесплатно без регистрации torrent

Если у вас наблюдаются проблемы со скриншотами, переходом по ссылками, скачиванием торрентов - проблемы в блокировщике рекламы AdBlock. #хорошегоДня!


Статистика раздачи
Размер:  432 MB   |    Зарегистрирован:  5 лет 8 месяцев   |    .torrent скачан:  34 раза   |   
Раздают:  1  
   
Загрузка...
 
Автор Сообщение

Umakiro

avatar Umakiro


Chris Duarte Group - Infinite Energy

Жанр: Blues-Rock
Страна-производитель диска: USA
Год издания диска: 2010
Издатель (лейбл): Blues Bureau International
Номер по каталогу: BB 2075-2
Аудио кодек: FLAC (*.flac)
Тип рипа: image+.cue
Битрейт аудио: lossless
Продолжительность: 1:04'33"
Источник (релизер): ©СЁРФ-Маrаtones aka izia1956
Наличие сканов в содержимом раздачи: да
Треклист:
01. Ridin (4:07)
02. City Life Blues (8:06)
03. Cross My Heart (3:42)
04. Waiting On You (4:02)
05. Sundown Blues (6:28)
06. Cold Cold Day (6:56)
07. My Heart Don't Want To Let You Go (6:10)
08. Killing Time (8:27)
09. Purple Gloaming (6:19)
10. Me All Me (6:15)
11. Hamra St. (3:57)
 
Exact Audio Copy V0.99 prebeta 4 from 23. January 2008

Отчёт EAC об извлечении, выполненном 26. октября 2010, 18:12

Chris Duarte Group / Infinite Energy

Дисковод: ATAPI iHAS424 A Adapter: 0 ID: 0

Режим чтения : ДостоверностьИспользование точного потока : ДаОтключение кэша аудио : ДаИспользование указателей C2 : Нет

Коррекция смещения при чтении : 6Способность читать области Lead-in и Lead-out : НетЗаполнение пропущенных сэмплов тишиной : ДаУдаление блоков с тишиной в начале и конце : НетПри вычислениях CRC использовались нулевые сэмплы : ДаИнтерфейс : Установленный внешний ASPI-интерфейс

Выходной формат : Пользовательский кодировщикВыбранный битрейт : 1024 kBit/sКачество : ВысокийДобавление ID3-тэга : НетУтилита сжатия : C:\Program Files\Exact Audio Copy\FLAC\FLAC.EXEДополнительные параметры : -5 -V -T "ARTIST=%a" -T "TITLE=%t" -T "ALBUM=%g" -T "DATE=%y" -T "TRACKNUMBER=%n" -T "GENRE=%m" -T "COMMENT=%e" %s -o %d

TOC извлечённого CD

Трек | Старт | Длительность | Начальный сектор | Конечный сектор --------------------------------------------------------------------- 1 | 0:00.00 | 4:07.73 | 0 | 18597 2 | 4:07.73 | 8:06.53 | 18598 | 55100 3 | 12:14.51 | 3:42.06 | 55101 | 71756 4 | 15:56.57 | 4:02.13 | 71757 | 89919 5 | 19:58.70 | 6:28.11 | 89920 | 119030 6 | 26:27.06 | 6:56.54 | 119031 | 150284 7 | 33:23.60 | 6:10.12 | 150285 | 178046 8 | 39:33.72 | 8:27.26 | 178047 | 216097 9 | 48:01.23 | 6:19.14 | 216098 | 244536 10 | 54:20.37 | 6:15.16 | 244537 | 272677 11 | 60:35.53 | 3:57.72 | 272678 | 290524

Характеристики диапазона извлечения и сообщения об ошибках

Выбранный диапазон

Имя файла I:\BitComet\Chris Duarte Group-Infinite Energy(2010)(flac)\Chris Duarte Group - Infinite Energy.wav

Пиковый уровень 100.0 % Качество диапазона 100.0 % CRC теста 3D7D595D CRC копии 3D7D595D Копирование... OK

Ошибок не произошло

AccurateRip: сводка

Трек 1 нет в базе данныхТрек 2 нет в базе данныхТрек 3 нет в базе данныхТрек 4 нет в базе данныхТрек 5 нет в базе данныхТрек 6 нет в базе данныхТрек 7 нет в базе данныхТрек 8 нет в базе данныхТрек 9 нет в базе данныхТрек 10 нет в базе данныхТрек 11 нет в базе данных

Ни одного трека нет в базе AccurateRip

Конец отчёта
Доп. информация: Критики называют альбом Infinite Energy - одним из лучших его альбомов!!!
Оцените!!!
Картинка с ещё запечатанного СД!!!
Рип сделан собственноручно с оригинального СД!!!
Сканы в папке.
Релиз от ©СЁРФ-Маrаtones aka izia1956

Трекер:  [ 27-Янв-2012 17:39 ]

  

Скачать .torrent

Размер .torrent файла 17 KB


Размер: 432 MB
Хэш (hash) релиза: 6726fe4d9b3a0d6c3fc17200b204c67abe72a9af

Еще никто не оставлял запись к записи скачать торрент Chris Duarte Group - Infinite Energy - 2010, FLAC . Будь первым!

!Обратная связь