Скачать через торрент музыку Keef Hartley Band - Little Big Band - 1971, FLAC бесплатно без регистрации torrent

Если у вас наблюдаются проблемы со скриншотами, переходом по ссылками, скачиванием торрентов - проблемы в блокировщике рекламы AdBlock. #хорошегоДня!


Статистика раздачи
Размер:  229 MB   |    Зарегистрирован:  5 лет 8 месяцев   |    .torrent скачан:  39 раз   |   
Раздают:  1  
   
Загрузка...
 
Автор Сообщение

Umakiro

avatar Umakiro


Keef Hartley Band - Little Big Band

Жанр: Jazz-Rock, Blues-Rock
Год выпуска диска: 1971
Производитель диска: COE Records Ltd., England
Аудио кодек: FLAC
Тип рипа: image+.cue
Битрейт аудио: lossless
Продолжительность: 39'16"
Трэклист:
01. You Can't Take It With You (7'48")
02. Me And My Woman (4'56")
03. Not Foolish, Not Wise (5'06")
04. Leg Overture - Medley (Leavin' Trunk, The Halfbreed, Just To Cry, Sinnin' For You) (21'26")

Состав:
Keef Hartley - ударные
Miller Anderson - гитара, вокал
Derek Austin - клавишные
Gary Thain - бас-гитара
Pete York - перкуссия

Derek Wadsworth - тромбон (соло)
Danny Allmark - тромбон
Chris Mercer - баритон и тенор саксофон (соло в трэке 03)
Lynn Dobson - тенор/сопрано саксофон, флейта (соло)
Barbara Thompson - альт саксофон
Roger Vade - тенор саксофон
Harry Becket - труба (соло)
Mike Rosen - труба
Mike Davis - труба
Terry Noonan - труба
Martin Drover - труба
Exact Audio Copy V0.99 prebeta 5 from 4. May 2009

Отчёт EAC об извлечении, выполненном 19. августа 2009, 6:21

Hartley Band, Keef / Little Big Band

Дисковод: TSSTcorpCD/DVDW TS-L632D Adapter: 0 ID: 0

Режим чтения : Достоверность
Использование точного потока : Да
Отключение кэша аудио : Да
Использование указателей C2 : Нет

Коррекция смещения при чтении : 6
Способность читать области Lead-in и Lead-out : Да
Заполнение пропущенных сэмплов тишиной : Да
Удаление блоков с тишиной в начале и конце : Нет
При вычислениях CRC использовались нулевые сэмплы : Да
Интерфейс : Встроенный Win32-интерфейс для Win NT/2000

Выходной формат : Пользовательский кодировщик
Выбранный битрейт : 192 kBit/s
Качество : Высокий
Добавление ID3-тэга : Нет
Утилита сжатия : C:\Program Files\Exact Audio Copy\FLAC\FLAC.EXE
Дополнительные параметры : -6 -V -T "ARTIST=%a" -T "TITLE=%t" -T "ALBUM=%g" -T "DATE=%y" -T "TRACKNUMBER=%n" -T "GENRE=%m" -T "COMMENT=%e" %s -o %d

TOC извлечённого CD

Трек | Старт | Длительность | Начальный сектор | Конечный сектор
---------------------------------------------------------------------
1 | 0:00.33 | 8:15.37 | 33 | 37194
2 | 8:15.70 | 5:49.15 | 37195 | 63384
3 | 14:05.10 | 6:49.15 | 63385 | 94074
4 | 20:54.25 | 21:48.20 | 94075 | 192194

Характеристики диапазона извлечения и сообщения об ошибках

Выбранный диапазон

Имя файла D:\EAC\Hartley Band, Keef - Little Big Band.wav

Пиковый уровень 99.7 %
Качество диапазона 100.0 %
CRC копии 22980BEF
Копирование... OK

Ошибок не произошло

Конец отчёта


Трекер:  [ 27-Янв-2012 17:37 ]

  

Скачать .torrent

Размер .torrent файла 10 KB


Размер: 229 MB
Хэш (hash) релиза: 87e219fb13cb9bbe1e0a28cf245034bc252a5f2b

Еще никто не оставлял запись к записи скачать торрент Keef Hartley Band - Little Big Band - 1971, FLAC . Будь первым!

!Обратная связь