Скачать через торрент музыку Connie Evingson - Some Cats Know - 1999, FLAC бесплатно без регистрации torrent

Если у вас наблюдаются проблемы со скриншотами, переходом по ссылками, скачиванием торрентов - проблемы в блокировщике рекламы AdBlock. #хорошегоДня!


Статистика раздачи
Размер:  411 MB   |    Зарегистрирован:  5 лет 8 месяцев   |    .torrent скачан:  40 раз   |   
Раздают:  1  
   
Загрузка...
 
Автор Сообщение

Umakiro

avatar Umakiro


Connie Evingson - Some Cats Know

Жанр: Female Vocal Jazz
Год издания диска: 1999
Издатель (лейбл): Minnehaha Music
Страна: USA
Аудиокодек: FLAC (*.flac)
Тип рипа: image+.cue
Битрейт аудио: lossless
Продолжительность: 1:07:55
Наличие сканов в содержимом раздачи: да
Треклист:
1. Some Cats Know
2. I Love Paris / It's Alright With Me
3. Close Your Eyes
4. More Than You Know
5. Bluesette
6. I Wanna Be Loved
7. I've Got the World on a String
8. Yesterday / Yesterdays
9. Accentuate the Positive
10. All the Things You Are
11. 'Round Midnight
12. I'm Gonna Wash That Man Right Outta My Hair
13. Anthropology
 
Exact Audio Copy V1.0 beta 1 from 15. November 2010

EAC extraction logfile from 26. January 2012, 22:26

Connie Evingson / Some Cats Know

Used drive : Optiarc DVD RW AD-7200S Adapter: 3 ID: 0

Read mode : SecureUtilize accurate stream : YesDefeat audio cache : YesMake use of C2 pointers : No

Read offset correction : 48Overread into Lead-In and Lead-Out : NoFill up missing offset samples with silence : YesDelete leading and trailing silent blocks : NoNull samples used in CRC calculations : YesUsed interface : Native Win32 interface for Win NT & 2000

Used output format : User Defined EncoderSelected bitrate : 768 kBit/sQuality : HighAdd ID3 tag : NoCommand line compressor : C:\Program Files (x86)\Exact Audio Copy\FLAC\FLAC.EXEAdditional command line options : -8 -V %s

TOC of the extracted CD

Track | Start | Length | Start sector | End sector --------------------------------------------------------- 1 | 0:00.00 | 6:10.27 | 0 | 27776 2 | 6:10.27 | 4:40.70 | 27777 | 48846 3 | 10:51.22 | 4:41.44 | 48847 | 69965 4 | 15:32.66 | 4:41.17 | 69966 | 91057 5 | 20:14.08 | 5:26.37 | 91058 | 115544 6 | 25:40.45 | 5:10.23 | 115545 | 138817 7 | 30:50.68 | 5:37.30 | 138818 | 164122 8 | 36:28.23 | 5:10.34 | 164123 | 187406 9 | 41:38.57 | 4:02.45 | 187407 | 205601 10 | 45:41.27 | 6:03.10 | 205602 | 232836 11 | 51:44.37 | 5:59.56 | 232837 | 259817 12 | 57:44.18 | 6:08.16 | 259818 | 287433 13 | 63:52.34 | 4:03.22 | 287434 | 305680

Range status and errors

Selected range

Filename C:\rfccbh\Connie Evingson - Some Cats Know.wav

Peak level 96.6 % Extraction speed 0.2 X Range quality 99.9 % Test CRC CA6EED7E Copy CRC CA6EED7E Copy OK

No errors occurred

AccurateRip summary

Track 1 cannot be verified as accurate (confidence 3) [F4901993], AccurateRip returned [432C3E01]Track 2 cannot be verified as accurate (confidence 3) [0BFA98EB], AccurateRip returned [C6BB88F5]Track 3 cannot be verified as accurate (confidence 3) [CDB5EAED], AccurateRip returned [AD2A7633]Track 4 cannot be verified as accurate (confidence 3) [1588ABA7], AccurateRip returned [8699EA39]Track 5 cannot be verified as accurate (confidence 3) [61B33A4A], AccurateRip returned [1669B76A]Track 6 cannot be verified as accurate (confidence 3) [FF3115B2], AccurateRip returned [D13B90D8]Track 7 cannot be verified as accurate (confidence 3) [F5FB68EC], AccurateRip returned [5A18D79E]Track 8 cannot be verified as accurate (confidence 3) [BF9F200C], AccurateRip returned [ED62B228]Track 9 cannot be verified as accurate (confidence 3) [93967A2B], AccurateRip returned [B66BEEF5]Track 10 cannot be verified as accurate (confidence 3) [535DF53E], AccurateRip returned [86327CBE]Track 11 cannot be verified as accurate (confidence 3) [29A2C0F5], AccurateRip returned [0C916019]Track 12 cannot be verified as accurate (confidence 3) [D14FB1B1], AccurateRip returned [CFDC1651]Track 13 cannot be verified as accurate (confidence 3) [40CE225A], AccurateRip returned [45349771]

No tracks could be verified as accurateYou may have a different pressing from the one(s) in the database

End of status report
 
REM GENRE "Vocal Jazz"REM DATE 1990REM DISCID A40FEB0DREM COMMENT "ExactAudioCopy v1.0b1"PERFORMER "Connie Evingson"TITLE "Some Cats Know"FILE "Connie Evingson - Some Cats Know.flac" WAVE TRACK 01 AUDIO TITLE "Some Cats Know" PERFORMER "Connie Evingson" FLAGS DCP INDEX 01 00:00:00 TRACK 02 AUDIO TITLE "I Love Paris - It's Alright With Me" PERFORMER "Connie Evingson" FLAGS DCP INDEX 00 06:10:22 INDEX 01 06:10:27 TRACK 03 AUDIO TITLE "Close Your Eyes" PERFORMER "Connie Evingson" FLAGS DCP INDEX 00 10:51:17 INDEX 01 10:51:22 TRACK 04 AUDIO TITLE "More Than You Know" PERFORMER "Connie Evingson" FLAGS DCP INDEX 00 15:32:61 INDEX 01 15:32:66 TRACK 05 AUDIO TITLE "Bluesette" PERFORMER "Connie Evingson" FLAGS DCP INDEX 00 20:14:03 INDEX 01 20:14:08 TRACK 06 AUDIO TITLE "I Wanna Be Loved" PERFORMER "Connie Evingson" FLAGS DCP INDEX 00 25:40:40 INDEX 01 25:40:45 TRACK 07 AUDIO TITLE "I've Got The World On A String" PERFORMER "Connie Evingson" FLAGS DCP INDEX 00 30:50:63 INDEX 01 30:50:68 TRACK 08 AUDIO TITLE "Yesterday - Yesterdays" PERFORMER "Connie Evingson" FLAGS DCP INDEX 00 36:28:18 INDEX 01 36:28:23 TRACK 09 AUDIO TITLE "Accentuate The Positive" PERFORMER "Connie Evingson" FLAGS DCP INDEX 00 41:38:52 INDEX 01 41:38:57 TRACK 10 AUDIO TITLE "All The Things You Are" PERFORMER "Connie Evingson" FLAGS DCP INDEX 00 45:41:22 INDEX 01 45:41:27 TRACK 11 AUDIO TITLE "'Round Midnight" PERFORMER "Connie Evingson" FLAGS DCP INDEX 00 51:44:32 INDEX 01 51:44:37 TRACK 12 AUDIO TITLE "I'm Gonna Wash That Man Right Out Of My Hair" PERFORMER "Connie Evingson" FLAGS DCP INDEX 00 57:44:13 INDEX 01 57:44:18 TRACK 13 AUDIO TITLE "Anthropology" PERFORMER "Connie Evingson" FLAGS DCP INDEX 00 63:52:29 INDEX 01 63:52:34
Just prior to Some Cats Know, Connie Evingson released Fever, her tribute album to Peggy Lee. A glance at the title of this new release might lead one to conclude that this is another album paying homage to Lee. Not at all. While there is a nod or two to the inestimable Peggy Lee, like the title tune, this album is an exhilarating, entertaining exposition of Evingson's considerable vocal skills accentuated by the presence of great veteran jazz players. Their talents, and those of the several local musicians on this session, are not wasted. A good deal of attention has been given to the arrangement of each of the songs on this varied play list. "More Than You Know" is a tour de force with Sanford Moore's funky, low-down piano providing most of the backstopping on this bluesy rendition of this tune from the 1929 musical Great Day. The tenor saxophones of Dave Karr and the legendary Chicago horn man Von Freeman engage in a musical conversation on a very upbeat "It's Alright With Me," with Sanford Moore moving in as Evingson segues into "I Love Paris." Karr's haunting flute is the musical passport to a plaintive vocal version of "Close Your Eyes." Toots Thielemans gets on board with his harmonica as he and Evingson romp through his jazz standard, "Bluesette." This tune also features Reuben Ristrom's Barry Galbraith-like guitar strumming behind Evingson, with Jimmy Hamilton's straightforward, no-nonsense piano getting a lot of play on this tune Doc Severinsen's muted trumpet joins Evingson on "I've Got the World on a String" and is also prominent on a sultry, lush version of "'Round Midnight." "More Than You Know" conjures a small, smoke-filled New York lounge with a chantuese backed by a rhythm section, with guitar. Rather than the usual swing arrangement for "Accentuate the Positive," Evingson gives it a Ray Charles treatment -- funky with an off-center beat. She is ably assisted by Al Grey's growling trombone, Sanford Moore's saloon piano, and Dave Karr's New Orleans' clarinet. This performance is one of the highlights of an album where picking a highlight is difficult. "All the Things You Are" reveals the supreme confidence these performers have in their individuality coupled with their ease in coalescing with those they share the stage with. Evingson does the lyrics in a midtempo, but Jeanne Arland Peterson's piano is comping faster than Evingson's time while Irv Williams is doing his own thing on tenor, and it works, as does every cut on the album, which is highly recommended. ~ Dave Nathan
Connie Evingson (vocals); Reuben Ristrom (guitar); Von Freeman, Dave Karr, Irv Williams (tenor saxophone); Doc Severinsen, Gene Adams (trumpet); Al Grey (trombone); Toots Thieleman (harmonica); Sanford Moore, Jimmy Hamilton, Jeanne Arland Peterson (piano); Jack McDuff (Hammond B-3 organ); Terry Burns, Jay Young, Godry Johnson, Gary Raynor, Ray Brown (bass); Phil Hey, Joe Pulice (drums).


Трекер:  [ 27-Янв-2012 17:28 ]

  

Скачать .torrent

Размер .torrent файла 17 KB


Размер: 411 MB
Хэш (hash) релиза: 24f919ef71eaa399e6d20b782604f169a6549c92

Еще никто не оставлял запись к записи скачать торрент Connie Evingson - Some Cats Know - 1999, FLAC . Будь первым!

!Обратная связь