Скачать через торрент музыку Ernestine Anderson — Never Make Your Move Too Soon бесплатно без регистрации torrent

Если у вас наблюдаются проблемы со скриншотами, переходом по ссылками, скачиванием торрентов - проблемы в блокировщике рекламы AdBlock. #хорошегоДня!


Статистика раздачи
Размер:  205 MB   |    Зарегистрирован:  5 лет 8 месяцев   |    .torrent скачан:  37 раз   |   
Раздают:  1  
   
Загрузка...
 
Автор Сообщение

Umakiro

avatar Umakiro


Ernestine Anderson — Never Make Your Move Too Soon (1980)

Жанр: Vocal Jazz
Год издания диска: 1990
Издатель (лейбл): Concord Jazz
Номер по каталогу: CCD-4147
Аудиокодек: FLAC (*.flac)
Тип рипа: tracks+.cue
Битрейт аудио: lossless
Продолжительность: 39:18
Риппер: Oceandrop
Наличие сканов в содержимом раздачи: да

Треклист:
01. Never Make Your Move Too Soon (3:31)
02. What A Difference A Day Made (4:47)
03. As Long As I Live (4:40)
04. Old Folks (7:18)
05. Just One More Chance (5:30)
06. My Shining Hour (3:34)
07. Why Did I Choose You? (4:22)
08. Poor Butterfly (5:35)

Personnel:
Ernestine Anderson - vo
Monty Alexander - p
Ray Brown - b
Frank Gant - d

Rec.: Coast Recorders, San Francisco, CA, August 1980.
 
 
Exact Audio Copy V0.99 prebeta 5 from 4. May 2009

EAC extraction logfile from 14. January 2010, 14:17

Ernestine Anderson / Never Make Your Move Too Soon

Used drive : ASUS CRW-5232AS Adapter: 0 ID: 0

Read mode : SecureUtilize accurate stream : YesDefeat audio cache : YesMake use of C2 pointers : No

Read offset correction : 6Overread into Lead-In and Lead-Out : NoFill up missing offset samples with silence : YesDelete leading and trailing silent blocks : NoNull samples used in CRC calculations : YesUsed interface : Native Win32 interface for Win NT & 2000Gap handling : Appended to previous track

Used output format : User Defined EncoderSelected bitrate : 1024 kBit/sQuality : HighAdd ID3 tag : NoCommand line compressor : C:\Program Files\Exact Audio Copy\FLAC\FLAC.EXEAdditional command line options : -6 -V -T "ARTIST=%a" -T "TITLE=%t" -T "ALBUM=%g" -T "DATE=%y" -T "TRACKNUMBER=%n" -T "GENRE=%m" -T "COMMENT=%e" %s -o %d

TOC of the extracted CD

Track | Start | Length | Start sector | End sector --------------------------------------------------------- 1 | 0:00.00 | 3:31.10 | 0 | 15834 2 | 3:31.10 | 4:47.25 | 15835 | 37384 3 | 8:18.35 | 4:40.12 | 37385 | 58396 4 | 12:58.47 | 7:17.70 | 58397 | 91241 5 | 20:16.42 | 5:29.60 | 91242 | 115976 6 | 25:46.27 | 3:34.28 | 115977 | 132054 7 | 29:20.55 | 4:22.15 | 132055 | 151719 8 | 33:42.70 | 5:35.02 | 151720 | 176846

Track 1

Filename G:\working now\Ernestine Anderson - Never Make Your Move Too Soon\01. Never Make Your Move Too Soon.wav

Pre-gap length 0:00:02.00

Peak level 91.8 % Track quality 100.0 % Test CRC C4911A97 Copy CRC C4911A97 Track not present in AccurateRip database Copy OK

Track 2

Filename G:\working now\Ernestine Anderson - Never Make Your Move Too Soon\02. What a Difference a Day Made.wav

Pre-gap length 0:00:03.55

Peak level 67.3 % Track quality 100.0 % Test CRC 6673A791 Copy CRC 6673A791 Track not present in AccurateRip database Copy OK

Track 3

Filename G:\working now\Ernestine Anderson - Never Make Your Move Too Soon\03. As Long As I Live.wav

Pre-gap length 0:00:02.18

Peak level 75.1 % Track quality 100.0 % Test CRC BD8FCD76 Copy CRC BD8FCD76 Track not present in AccurateRip database Copy OK

Track 4

Filename G:\working now\Ernestine Anderson - Never Make Your Move Too Soon\04. Old Folks.wav

Pre-gap length 0:00:03.17

Peak level 56.7 % Track quality 99.9 % Test CRC A44AEAE1 Copy CRC A44AEAE1 Track not present in AccurateRip database Copy OK

Track 5

Filename G:\working now\Ernestine Anderson - Never Make Your Move Too Soon\05. Just One More Chance.wav

Pre-gap length 0:00:04.00

Peak level 61.6 % Track quality 100.0 % Test CRC 414FD02E Copy CRC 414FD02E Track not present in AccurateRip database Copy OK

Track 6

Filename G:\working now\Ernestine Anderson - Never Make Your Move Too Soon\06. My Shining Hour.wav

Pre-gap length 0:00:03.40

Peak level 97.3 % Track quality 100.0 % Test CRC 09DDE2F6 Copy CRC 09DDE2F6 Track not present in AccurateRip database Copy OK

Track 7

Filename G:\working now\Ernestine Anderson - Never Make Your Move Too Soon\07. Why Did I Choose You .wav

Pre-gap length 0:00:03.43

Peak level 53.2 % Track quality 100.0 % Test CRC A729F145 Copy CRC A729F145 Track not present in AccurateRip database Copy OK

Track 8

Filename G:\working now\Ernestine Anderson - Never Make Your Move Too Soon\08. Poor Butterfly.wav

Pre-gap length 0:00:03.33

Peak level 82.1 % Track quality 100.0 % Test CRC 56A5C1BE Copy CRC 56A5C1BE Track not present in AccurateRip database Copy OK

None of the tracks are present in the AccurateRip database

No errors occurred

End of status report
 
REM GENRE JazzREM DATE 1980REM DISCID 52093508REM COMMENT "ExactAudioCopy v0.99pb5"FILE "01. Never Make Your Move Too Soon.flac" WAVE TRACK 01 AUDIO INDEX 01 00:00:00 TRACK 02 AUDIO INDEX 00 03:27:30FILE "02. What A Difference A Day Made.flac" WAVE INDEX 01 00:00:00 TRACK 03 AUDIO INDEX 00 04:45:07FILE "03. As Long As I Live.flac" WAVE INDEX 01 00:00:00 TRACK 04 AUDIO INDEX 00 04:36:70FILE "04. Old Folks.flac" WAVE INDEX 01 00:00:00 TRACK 05 AUDIO INDEX 00 07:13:70FILE "05. Just One More Chance.flac" WAVE INDEX 01 00:00:00 TRACK 06 AUDIO INDEX 00 05:26:20FILE "06. My Shining Hour.flac" WAVE INDEX 01 00:00:00 TRACK 07 AUDIO INDEX 00 03:30:60FILE "07. Why Did I Choose You.flac" WAVE INDEX 01 00:00:00 TRACK 08 AUDIO INDEX 00 04:18:57FILE "08. Poor Butterfly.flac" WAVE INDEX 01 00:00:00


Трекер:  [ 27-Янв-2012 17:26 ]

  

Скачать .torrent

Размер .torrent файла 5 KB


Размер: 205 MB
Хэш (hash) релиза: 69755981ad26f8405e756d0f74d17e90328d6cbe

Еще никто не оставлял запись к записи скачать торрент Ernestine Anderson — Never Make Your Move Too Soon . Будь первым!

!Обратная связь