Скачать через торрент музыку Ella Fitzgerald - Whisper Not - 1966, FLAC бесплатно без регистрации torrent

Если у вас наблюдаются проблемы со скриншотами, переходом по ссылками, скачиванием торрентов - проблемы в блокировщике рекламы AdBlock. #хорошегоДня!


Статистика раздачи
Размер:  238 MB   |    Зарегистрирован:  5 лет 8 месяцев   |    .torrent скачан:  44 раза   |   
Раздают:  1  
   
Загрузка...
 
Автор Сообщение

Umakiro

avatar Umakiro


Ella Fitzgerald - Whisper Not

Страна: USA
Жанр: Jazz
Год выпуска: 1966
Формат: FLAC (image + .cue)
Битрейт аудио: lossless
Продолжительность: 40:46
Трэклист:
1 Sweet Georgia Brown 03:35
2 Whisper Not 03:04
3 I Said No 04:04
4 Thanks for the Memory 04:05
5 Spring Can Really Hang You up the Most 03:51
6 Old MacDonald Had a Farm 02:19
7 Time After Time 03:31
8 You've Changed 03:19
9 I've Got Your Number 03:16
10 Lover Man 04:24
11 Wives and Lovers 02:24
12 Matchmaker [From Fiddler on the Roof] 02:49
Exact Audio Copy V0.99 prebeta 3 from 28. July 2007

EAC extraction logfile from 3. April 2008, 13:30

Ella Fitzgerald / Whisper Not

Used drive : HL-DT-STDVD-ROM GDR8163B Adapter: 1 ID: 0

Read mode : Secure
Utilize accurate stream : Yes
Defeat audio cache : Yes
Make use of C2 pointers : No

Read offset correction : 102
Overread into Lead-In and Lead-Out : No
Fill up missing offset samples with silence : Yes
Delete leading and trailing silent blocks : No
Null samples used in CRC calculations : No
Used interface : Native Win32 interface for Win NT & 2000

Used output format : User Defined Encoder
Selected bitrate : 768 kBit/s
Quality : High
Add ID3 tag : No
Command line compressor : C:\Program Files\Exact Audio Copy\FLAC\FLAC.EXE
Additional command line options : -6 -V -T "ARTIST=%a" -T "TITLE=%t" -T "ALBUM=%g" -T "DATE=%y" -T "TRACKNUMBER=%n" -T "GENRE=%m" -T "COMMENT=%e" %s -o %d

TOC of the extracted CD

Track | Start | Length | Start sector | End sector
---------------------------------------------------------
1 | 0:00.00 | 3:35.22 | 0 | 16146
2 | 3:35.22 | 3:04.00 | 16147 | 29946
3 | 6:39.22 | 4:04.70 | 29947 | 48316
4 | 10:44.17 | 4:05.05 | 48317 | 66696
5 | 14:49.22 | 3:51.53 | 66697 | 84074
6 | 18:41.00 | 2:19.37 | 84075 | 94536
7 | 21:00.37 | 3:31.45 | 94537 | 110406
8 | 24:32.07 | 3:19.53 | 110407 | 125384
9 | 27:51.60 | 3:16.05 | 125385 | 140089
10 | 31:07.65 | 4:24.12 | 140090 | 159901
11 | 35:32.02 | 2:24.33 | 159902 | 170734
12 | 37:56.35 | 2:49.47 | 170735 | 183456

Range status and errors

Selected range

Filename C:\Ella Fitzgerald - Whisper Not\Ella Fitzgerald - Whisper Not.wav

Peak level 100.0 %
Range quality 100.0 %
Copy CRC 2240BF3B
Copy OK

No errors occurred

AccurateRip summary

Track 1 cannot be verified as accurate (confidence 1) [2E3A1532], AccurateRip returned [73485692]
Track 2 cannot be verified as accurate (confidence 1) [8425EF89], AccurateRip returned [43E064C6]
Track 3 cannot be verified as accurate (confidence 1) [B6F1AFF5], AccurateRip returned [9EB285FD]
Track 4 cannot be verified as accurate (confidence 1) [7E0E7D05], AccurateRip returned [C6910815]
Track 5 cannot be verified as accurate (confidence 1) [52C4CCC3], AccurateRip returned [064CDACF]
Track 6 cannot be verified as accurate (confidence 1) [92FB2578], AccurateRip returned [5FE4ECF0]
Track 7 cannot be verified as accurate (confidence 1) [375F4A30], AccurateRip returned [D4471CD4]
Track 8 cannot be verified as accurate (confidence 1) [B1D34602], AccurateRip returned [5286FDE2]
Track 9 cannot be verified as accurate (confidence 1) [15EC2AC2], AccurateRip returned [DAACA55E]
Track 10 cannot be verified as accurate (confidence 1) [E7CB026D], AccurateRip returned [E7DA0161]
Track 11 cannot be verified as accurate (confidence 1) [CC1935E3], AccurateRip returned [8F11A74F]
Track 12 cannot be verified as accurate (confidence 1) [E8380B8C], AccurateRip returned [50FDEE70]

No tracks could be verified as accurate
You may have a different pressing from the one(s) in the database

End of status report
Release Date Jun 20, 1966

Recording Date Jul 20, 1966
Review by Ronnie D. Lankford Jr.
Whoever decided to put pianist Marty Paich and Ella Fitzgerald together in the studio in 1966 deserves a bit of credit for the great music on Whisper Not. Together, Fitzgerald and Paich deliver a dozen beautifully sung, carefully arranged standards. An orchestra tastefully backs Fitzgerald's vocals, offering cushy support without overdoing it. Even lighter pieces like "Sweet Georgia Brown" and "Old MacDonald" are given stately renditions. There's a fun version of "I Said No," filled with silly double entendres, and a relaxed take on "Thanks for the Memory." Norman Granz takes full advantage of stereo capabilities, creatively mixing the instruments to the right and left tracks while leaving Fitzgerald's voice front and center. Paich adds to the overall sound quality by varying the arrangements from song to song, carefully wrapping each tune in the right package. These fine-tuned arrangements also provide the perfect launching pad for Fitzgerald to place her own stamp on material associated with other singers. While both "Lover Man (Oh Where Can You Be)" and "You've Changed" will be recognized as Billie Holiday classics, Fitzgerald delivers light, elegant versions that are distinctly her own. Whisper Not captures two intelligent artists working toward a common goal and creating beautiful music in the process.
Ella Fitzgerald Vocals
Louie Bellson Drums
Chuck Berghofer Bass
Harry "Sweets" Edison Trumpet
Shelly Manne Drums
Joe Mondragon Bass
Bill Perkins Sax (Tenor)
Jimmy Rowles Piano
Al Viola Guitar
Stu Williamson Trumpet
Marty Paich Arranger, Conductor
Norman Granz Producer
Hollis King Art Direction
Bryan Koniarz Producer
Acy Lehman Cover Design
Ken Drunker Executive Producer
Sherniece Smith Art Producer
Mark Smith Production Assistant
LeonaKevin Reeves Mastering
Leonard Feather Liner Notes
Jay Thompson Cover Photo
Val Valentin Director of Engineering
Isabelle Wong Design


Трекер:  [ 27-Янв-2012 17:26 ]

  

Скачать .torrent

Размер .torrent файла 38 KB


Размер: 238 MB
Хэш (hash) релиза: 7b522962d518e30cce8b591374a2ea83dbb346a8

Еще никто не оставлял запись к записи скачать торрент Ella Fitzgerald - Whisper Not - 1966, FLAC . Будь первым!

!Обратная связь