Скачать через торрент музыку Boston Horns - East Coast Funk - 2003, FLAC бесплатно без регистрации torrent

Если у вас наблюдаются проблемы со скриншотами, переходом по ссылками, скачиванием торрентов - проблемы в блокировщике рекламы AdBlock. #хорошегоДня!


Статистика раздачи
Размер:  415 MB   |    Зарегистрирован:  5 лет 8 месяцев   |    .torrent скачан:  33 раза   |   
Раздают:  1  
   
Загрузка...
 
Автор Сообщение

Umakiro

avatar Umakiro


Boston Horns - East Coast Funk

Жанр: Jazz+Funk, Soul, Nu-Jazz
Год издания диска: 2003
Издатель (лейбл): Boston Horns
Номер по каталогу: 80792101242
Аудиокодек: FLAC (*.flac)
Тип рипа: tracks+.cue
Битрейт аудио: lossless
Продолжительность: 57:19
Источник: Собственные рипы
Наличие сканов в содержимом раздачи: да

Треклист:

01. St. Charles - 7:17
02. Soundcheck Jam - 6:07
03. kdoggd7 - 6:43
04. Jackie's Song - 7:27
05. Speedball - 6:03
06. Ain't Nothin' 2it - 7:23
07. Crosstown Traffic - 5:06
08. Buttered Popcorn - 5:21
09. Skillet - 5:53
.
Garret Savluk - Trumpet, Vocals
Henley Douglas Jr. - Tenor & Baritone Saxophones, Vocals
Jeff Buckridge - Guitar
Mark Longo - Keyboards, Vocals
Mike "Squid" Rush - Bass Guitar
Jack Howard Jr. - Drums

Special Guests:
Melvin Sparks - Guitar (tr. 1, 4, 6, 8; right side)
Yahuba - Congas (tr. 1, 2, 3, 4, 8)
Russ Lawton - Guiro, Shaker, Tambourine, Egg (tr. 3, 4)
 
Exact Audio Copy V1.0 beta 2 from 29. April 2011

EAC extraction logfile from 29. July 2011, 23:05

Boston Horns / East Coast Funk

Used drive : HL-DT-STDVD-RAM GSA-H55N Adapter: 0 ID: 2

Read mode : SecureUtilize accurate stream : YesDefeat audio cache : YesMake use of C2 pointers : No

Read offset correction : 102Overread into Lead-In and Lead-Out : YesFill up missing offset samples with silence : YesDelete leading and trailing silent blocks : NoNull samples used in CRC calculations : YesUsed interface : Installed external ASPI interfaceGap handling : Appended to next track

Used output format : User Defined EncoderSelected bitrate : 128 kBit/sQuality : HighAdd ID3 tag : NoCommand line compressor : G:\Program Files\Exact Audio Copy\Encoder\flac.exeAdditional command line options : -V -8 -T "Genre=%genre%" -T "Artist=%artist%" -T "Title=%title%" -T "Album=%albumtitle%" -T "Date=%year%" -T "Tracknumber=%tracknr%" -T "Comment=EAC1.0b2 FLAC -8" %source%

TOC of the extracted CD

Track | Start | Length | Start sector | End sector --------------------------------------------------------- 1 | 0:00.00 | 7:19.70 | 0 | 32994 2 | 7:19.70 | 6:07.20 | 32995 | 60539 3 | 13:27.15 | 6:43.32 | 60540 | 90796 4 | 20:10.47 | 7:26.30 | 90797 | 124276 5 | 27:37.02 | 6:03.50 | 124277 | 151551 6 | 33:40.52 | 7:42.00 | 151552 | 186201 7 | 41:22.52 | 4:45.73 | 186202 | 207649 8 | 46:08.50 | 5:20.62 | 207650 | 231711 9 | 51:29.37 | 5:50.15 | 231712 | 257976

Track 1

Filename F:\WAV\01 - St. Charles.wav

Pre-gap length 0:00:02.00

Peak level 99.9 % Extraction speed 4.7 X Track quality 100.0 % Test CRC B8F4EA8A Copy CRC B8F4EA8A Track not present in AccurateRip database Copy OK

Track 2

Filename F:\WAV\02 - Soundcheck Jam.wav

Pre-gap length 0:00:02.43

Peak level 99.9 % Extraction speed 5.2 X Track quality 100.0 % Test CRC 47F09274 Copy CRC 47F09274 Track not present in AccurateRip database Copy OK

Track 3

Filename F:\WAV\03 - kdoggd7.wav

Pre-gap length 0:00:02.43

Peak level 99.9 % Extraction speed 5.8 X Track quality 100.0 % Test CRC 21EEB2D5 Copy CRC 21EEB2D5 Track not present in AccurateRip database Copy OK

Track 4

Filename F:\WAV\04 - Jackie's Song.wav

Pre-gap length 0:00:02.42

Peak level 99.9 % Extraction speed 6.4 X Track quality 100.0 % Test CRC 73011272 Copy CRC 73011272 Track not present in AccurateRip database Copy OK

Track 5

Filename F:\WAV\05 - Speedball.wav

Pre-gap length 0:00:02.12

Peak level 99.9 % Extraction speed 6.8 X Track quality 100.0 % Test CRC CBFFB22A Copy CRC CBFFB22A Track not present in AccurateRip database Copy OK

Track 6

Filename F:\WAV\06 - Ain't Nothin' 2it.wav

Pre-gap length 0:00:03.05

Peak level 99.9 % Extraction speed 7.2 X Track quality 100.0 % Test CRC 9FFFE9D9 Copy CRC 9FFFE9D9 Track not present in AccurateRip database Copy OK

Track 7

Filename F:\WAV\07 - Crosstown Traffic.wav

Pre-gap length 0:00:22.25

Peak level 100.0 % Extraction speed 6.6 X Track quality 99.9 % Test CRC DFDA482A Copy CRC DFDA482A Track not present in AccurateRip database Copy OK

Track 8

Filename F:\WAV\08 - Buttered Popcorn.wav

Pre-gap length 0:00:02.40

Peak level 99.9 % Extraction speed 7.5 X Track quality 100.0 % Test CRC 298D8BBF Copy CRC 298D8BBF Track not present in AccurateRip database Copy OK

Track 9

Filename F:\WAV\09 - Skillet.wav

Pre-gap length 0:00:02.42

Peak level 99.9 % Extraction speed 6.3 X Track quality 100.0 % Test CRC 6BD3C9D0 Copy CRC 6BD3C9D0 Track not present in AccurateRip database Copy OK

None of the tracks are present in the AccurateRip database

No errors occurred

End of status report

==== Log checksum C1191FD30568FEC6A5061BDE75C18709541D4668CCCF13519FFDD567A627074D ====
 
REM GENRE Jazz+FunkREM DATE 2003REM DISCID 6C0D6F09REM COMMENT "ExactAudioCopy v1.0b2"PERFORMER "Boston Horns"TITLE "East Coast Funk"FILE "01 - St. Charles.wav" WAVE TRACK 01 AUDIO TITLE "St. Charles" PERFORMER "Boston Horns" INDEX 01 00:00:00FILE "02 - Soundcheck Jam.wav" WAVE TRACK 02 AUDIO TITLE "Soundcheck Jam" PERFORMER "Boston Horns" INDEX 00 00:00:00 INDEX 01 00:02:43FILE "03 - kdoggd7.wav" WAVE TRACK 03 AUDIO TITLE "kdoggd7" PERFORMER "Boston Horns" INDEX 00 00:00:00 INDEX 01 00:02:43FILE "04 - Jackie's Song.wav" WAVE TRACK 04 AUDIO TITLE "Jackie's Song" PERFORMER "Boston Horns" INDEX 00 00:00:00 INDEX 01 00:02:42FILE "05 - Speedball.wav" WAVE TRACK 05 AUDIO TITLE "Speedball" PERFORMER "Boston Horns" INDEX 00 00:00:00 INDEX 01 00:02:12FILE "06 - Ain't Nothin' 2it.wav" WAVE TRACK 06 AUDIO TITLE "Ain't Nothin' 2it" PERFORMER "Boston Horns" INDEX 00 00:00:00 INDEX 01 00:03:05FILE "07 - Crosstown Traffic.wav" WAVE TRACK 07 AUDIO TITLE "Crosstown Traffic" PERFORMER "Boston Horns" INDEX 00 00:00:00 INDEX 01 00:22:25FILE "08 - Buttered Popcorn.wav" WAVE TRACK 08 AUDIO TITLE "Buttered Popcorn" PERFORMER "Boston Horns" INDEX 00 00:00:00 INDEX 01 00:02:40FILE "09 - Skillet.wav" WAVE TRACK 09 AUDIO TITLE "Skillet" PERFORMER "Boston Horns" INDEX 00 00:00:00 INDEX 01 00:02:42
Рип специально снят в режиме присоединения зазоров к следующему треку из-за содержимого длинного предзазора седьмого трека, которое имеет к данному треку непосредственное отношение. Присоединение этого предзазора к предыдущему треку нарушило бы целостность композиции.


Трекер:  [ 27-Янв-2012 16:37 ]

  

Скачать .torrent

Размер .torrent файла 17 KB


Размер: 415 MB
Хэш (hash) релиза: 1231fc77313ed3902060f1380c89e5a0effe1915

Еще никто не оставлял запись к записи скачать торрент Boston Horns - East Coast Funk - 2003, FLAC . Будь первым!

!Обратная связь