Скачать через торрент музыку Esperanza Spalding - Radio Music Society - 2012, FLAC бесплатно без регистрации torrent

Если у вас наблюдаются проблемы со скриншотами, переходом по ссылками, скачиванием торрентов - проблемы в блокировщике рекламы AdBlock. #хорошегоДня!


Статистика раздачи
Размер:  322 MB   |    Зарегистрирован:  5 лет 8 месяцев   |    .torrent скачан:  61 раз   |   
Раздают:  1  
   
Загрузка...
 
Автор Сообщение

Umakiro

avatar Umakiro


•Esperanza Spalding - Radio Music Society•

Жанр: Fusion, Contemporary Jazz
Год издания диска: 2012
Издатель (лейбл): Heads Up International
Аудиокодек: FLAC (*.flac)
Тип рипа: tracks+.cue
Битрейт аудио: lossless
Продолжительность: 00:57:52
Источник (релизер): shummuhs
Наличие сканов в содержимом раздачи: нет

[b]Треклист[/b]:

01. Radio Song
02. Cinnamon Tree
03. Crowned & Kissed
04. Land Of The Free
05. Black Gold
06. I Can't Help It
07. Hold On Me
08. Vague Suspicions
09. Endangered Species
10. Let Her
11. City Of Roses
12. Smile Like That
 
X Lossless Decoder version 20120120 (139.0)

XLD extraction logfile from 2012-01-26 22:23:37 +0100

Esperanza Spalding / Radio Music Society

Used drive : OPTIARC DVD RW AD-5680H (revision 3AHB)

Ripper mode : XLD Secure RipperDisable audio cache : OK for the drive with a cache less than 1375KiBMake use of C2 pointers : NORead offset correction : 48Max retry count : 100Gap status : Analyzed, Appended

TOC of the extracted CD Track | Start | Length | Start sector | End sector --------------------------------------------------------- 1 | 00:00:00 | 06:32:06 | 0 | 29405 2 | 06:32:06 | 05:35:72 | 29406 | 54602 3 | 12:08:03 | 04:34:59 | 54603 | 75211 4 | 16:42:62 | 01:54:10 | 75212 | 83771 5 | 18:36:72 | 05:16:65 | 83772 | 107536 6 | 23:53:62 | 04:42:04 | 107537 | 128690 7 | 28:35:66 | 03:40:29 | 128691 | 145219 8 | 32:16:20 | 05:50:71 | 145220 | 171540 9 | 38:07:16 | 06:37:47 | 171541 | 201362 10 | 44:44:63 | 04:20:42 | 201363 | 220904 11 | 49:05:30 | 04:35:25 | 220905 | 241554 12 | 53:40:55 | 04:17:56 | 241555 | 260885

AccurateRip Summary Disc not found in AccurateRip DB.

All Tracks Album gain : -3.31 dB Peak : 0.997131 Statistics Read error : 0 Jitter error (maybe fixed) : 0 Retry sector count : 0 Damaged sector count : 0

Track 01 Filename : /Users/zookeeper/Desktop/01 Esperanza Spalding - Radio Song.flac Pre-gap length : 00:02:00

Track gain : -3.81 dB Peak : 0.986725 CRC32 hash (test run) : A814F01D CRC32 hash : A814F01D CRC32 hash (skip zero) : B6B3BAC3 AccurateRip signature : 3474EFD7 ->Track not present in AccurateRip database. Statistics Read error : 0 Jitter error (maybe fixed) : 0 Retry sector count : 0 Damaged sector count : 0

Track 02 Filename : /Users/zookeeper/Desktop/02 Esperanza Spalding - Cinnamon Tree.flac

Track gain : -1.85 dB Peak : 0.983185 CRC32 hash (test run) : 0A2007E9 CRC32 hash : 0A2007E9 CRC32 hash (skip zero) : E68180A0 AccurateRip signature : A0C7EDAF ->Track not present in AccurateRip database. Statistics Read error : 0 Jitter error (maybe fixed) : 0 Retry sector count : 0 Damaged sector count : 0

Track 03 Filename : /Users/zookeeper/Desktop/03 Esperanza Spalding - Crowned & Kissed.flac

Track gain : -4.00 dB Peak : 0.977783 CRC32 hash (test run) : F023E883 CRC32 hash : F023E883 CRC32 hash (skip zero) : A188757A AccurateRip signature : 44BE69DE ->Track not present in AccurateRip database. Statistics Read error : 0 Jitter error (maybe fixed) : 0 Retry sector count : 0 Damaged sector count : 0

Track 04 Filename : /Users/zookeeper/Desktop/04 Esperanza Spalding - Land Of The Free.flac

Track gain : -2.25 dB Peak : 0.878601 CRC32 hash (test run) : F852F15A CRC32 hash : F852F15A CRC32 hash (skip zero) : C99F8956 AccurateRip signature : DBE0B8EB ->Track not present in AccurateRip database. Statistics Read error : 0 Jitter error (maybe fixed) : 0 Retry sector count : 0 Damaged sector count : 0

Track 05 Filename : /Users/zookeeper/Desktop/05 Esperanza Spalding - Black Gold.flac

Track gain : -4.38 dB Peak : 0.978943 CRC32 hash (test run) : B10CA061 CRC32 hash : B10CA061 CRC32 hash (skip zero) : ED068D8A AccurateRip signature : 5A099C91 ->Track not present in AccurateRip database. Statistics Read error : 0 Jitter error (maybe fixed) : 0 Retry sector count : 0 Damaged sector count : 0

Track 06 Filename : /Users/zookeeper/Desktop/06 Esperanza Spalding - I Can't Help It.flac

Track gain : -3.56 dB Peak : 0.981018 CRC32 hash (test run) : 5262DB87 CRC32 hash : 5262DB87 CRC32 hash (skip zero) : C4E03E3E AccurateRip signature : 802D194E ->Track not present in AccurateRip database. Statistics Read error : 0 Jitter error (maybe fixed) : 0 Retry sector count : 0 Damaged sector count : 0

Track 07 Filename : /Users/zookeeper/Desktop/07 Esperanza Spalding - Hold On Me.flac

Track gain : -2.90 dB Peak : 0.977692 CRC32 hash (test run) : 4656EFE4 CRC32 hash : 4656EFE4 CRC32 hash (skip zero) : B784F3F7 AccurateRip signature : 18B1A62D ->Track not present in AccurateRip database. Statistics Read error : 0 Jitter error (maybe fixed) : 0 Retry sector count : 0 Damaged sector count : 0

Track 08 Filename : /Users/zookeeper/Desktop/08 Esperanza Spalding - Vague Suspicions.flac

Track gain : -3.04 dB Peak : 0.972809 CRC32 hash (test run) : 52828629 CRC32 hash : 52828629 CRC32 hash (skip zero) : A55C22D5 AccurateRip signature : 397141B5 ->Track not present in AccurateRip database. Statistics Read error : 0 Jitter error (maybe fixed) : 0 Retry sector count : 0 Damaged sector count : 0

Track 09 Filename : /Users/zookeeper/Desktop/09 Esperanza Spalding - Endangered Species.flac

Track gain : -2.24 dB Peak : 0.986664 CRC32 hash (test run) : B7DEE43B CRC32 hash : B7DEE43B CRC32 hash (skip zero) : E9C14FA3 AccurateRip signature : B0CC59E1 ->Track not present in AccurateRip database. Statistics Read error : 0 Jitter error (maybe fixed) : 0 Retry sector count : 0 Damaged sector count : 0

Track 10 Filename : /Users/zookeeper/Desktop/10 Esperanza Spalding - Let Her.flac

Track gain : -2.78 dB Peak : 0.989594 CRC32 hash (test run) : 786F7B0D CRC32 hash : 786F7B0D CRC32 hash (skip zero) : 0A266D1A AccurateRip signature : 517A1271 ->Track not present in AccurateRip database. Statistics Read error : 0 Jitter error (maybe fixed) : 0 Retry sector count : 0 Damaged sector count : 0

Track 11 Filename : /Users/zookeeper/Desktop/11 Esperanza Spalding - City Of Roses.flac

Track gain : -2.71 dB Peak : 0.981445 CRC32 hash (test run) : D2E4DA53 CRC32 hash : D2E4DA53 CRC32 hash (skip zero) : B43AAE69 AccurateRip signature : 58934154 ->Track not present in AccurateRip database. Statistics Read error : 0 Jitter error (maybe fixed) : 0 Retry sector count : 0 Damaged sector count : 0

Track 12 Filename : /Users/zookeeper/Desktop/12 Esperanza Spalding - Smile Like That.flac

Track gain : -4.17 dB Peak : 0.997131 CRC32 hash (test run) : FE7E3671 CRC32 hash : FE7E3671 CRC32 hash (skip zero) : CB9C1E4F AccurateRip signature : 0D26ADC4 ->Track not present in AccurateRip database. Statistics Read error : 0 Jitter error (maybe fixed) : 0 Retry sector count : 0 Damaged sector count : 0

No errors occurred

End of status report
 
TITLE "Radio Music Society"PERFORMER "Esperanza Spalding"CATALOG 0888072331747REM GENRE "Jazz"REM DATE "2012"REM DISCNUMBER 1REM TOTALDISCS 1REM DISCID A80D960CREM REPLAYGAIN_ALBUM_GAIN -3.31 dBREM REPLAYGAIN_ALBUM_PEAK 0.997131FILE "01 Esperanza Spalding - Radio Song.flac" WAVE TRACK 01 AUDIO TITLE "Radio Song" ISRC USHU21100040 REM REPLAYGAIN_TRACK_GAIN -3.81 dB REM REPLAYGAIN_TRACK_PEAK 0.986725 INDEX 01 00:00:00FILE "02 Esperanza Spalding - Cinnamon Tree.flac" WAVE TRACK 02 AUDIO TITLE "Cinnamon Tree" ISRC USHU21100041 REM REPLAYGAIN_TRACK_GAIN -1.85 dB REM REPLAYGAIN_TRACK_PEAK 0.983185 INDEX 01 00:00:00FILE "03 Esperanza Spalding - Crowned & Kissed.flac" WAVE TRACK 03 AUDIO TITLE "Crowned & Kissed" ISRC USHU21100042 REM REPLAYGAIN_TRACK_GAIN -4.00 dB REM REPLAYGAIN_TRACK_PEAK 0.977783 INDEX 01 00:00:00FILE "04 Esperanza Spalding - Land Of The Free.flac" WAVE TRACK 04 AUDIO TITLE "Land Of The Free" ISRC USHU21100043 REM REPLAYGAIN_TRACK_GAIN -2.25 dB REM REPLAYGAIN_TRACK_PEAK 0.878601 INDEX 01 00:00:00FILE "05 Esperanza Spalding - Black Gold.flac" WAVE TRACK 05 AUDIO TITLE "Black Gold" ISRC USHU21100044 REM REPLAYGAIN_TRACK_GAIN -4.38 dB REM REPLAYGAIN_TRACK_PEAK 0.978943 INDEX 01 00:00:00FILE "06 Esperanza Spalding - I Can't Help It.flac" WAVE TRACK 06 AUDIO TITLE "I Can't Help It" ISRC USHU21100045 REM REPLAYGAIN_TRACK_GAIN -3.56 dB REM REPLAYGAIN_TRACK_PEAK 0.981018 INDEX 01 00:00:00FILE "07 Esperanza Spalding - Hold On Me.flac" WAVE TRACK 07 AUDIO TITLE "Hold On Me" ISRC USHU21100046 REM REPLAYGAIN_TRACK_GAIN -2.90 dB REM REPLAYGAIN_TRACK_PEAK 0.977692 INDEX 01 00:00:00FILE "08 Esperanza Spalding - Vague Suspicions.flac" WAVE TRACK 08 AUDIO TITLE "Vague Suspicions" ISRC USHU21100047 REM REPLAYGAIN_TRACK_GAIN -3.04 dB REM REPLAYGAIN_TRACK_PEAK 0.972809 INDEX 01 00:00:00FILE "09 Esperanza Spalding - Endangered Species.flac" WAVE TRACK 09 AUDIO TITLE "Endangered Species" ISRC USHU21100048 REM REPLAYGAIN_TRACK_GAIN -2.24 dB REM REPLAYGAIN_TRACK_PEAK 0.986664 INDEX 01 00:00:00FILE "10 Esperanza Spalding - Let Her.flac" WAVE TRACK 10 AUDIO TITLE "Let Her" ISRC USHU21100049 REM REPLAYGAIN_TRACK_GAIN -2.78 dB REM REPLAYGAIN_TRACK_PEAK 0.989594 INDEX 01 00:00:00FILE "11 Esperanza Spalding - City Of Roses.flac" WAVE TRACK 11 AUDIO TITLE "City Of Roses" ISRC USHU21100050 REM REPLAYGAIN_TRACK_GAIN -2.71 dB REM REPLAYGAIN_TRACK_PEAK 0.981445 INDEX 01 00:00:00FILE "12 Esperanza Spalding - Smile Like That.flac" WAVE TRACK 12 AUDIO TITLE "Smile Like That" ISRC USHU21100051 REM REPLAYGAIN_TRACK_GAIN -4.17 dB REM REPLAYGAIN_TRACK_PEAK 0.997131 INDEX 01 00:00:00


Трекер:  [ 27-Янв-2012 16:34 ]

  

Скачать .torrent

Размер .torrent файла 14 KB


Размер: 322 MB
Хэш (hash) релиза: e2bbb29031ff71735067042674c27164f0e123eb

Еще никто не оставлял запись к записи скачать торрент Esperanza Spalding - Radio Music Society - 2012, FLAC . Будь первым!

!Обратная связь