Скачать через торрент музыку National Youth Jazz Orchestra - In Control бесплатно без регистрации torrent

Если у вас наблюдаются проблемы со скриншотами, переходом по ссылками, скачиванием торрентов - проблемы в блокировщике рекламы AdBlock. #хорошегоДня!


Статистика раздачи
Размер:  452 MB   |    Зарегистрирован:  5 лет 8 месяцев   |    .torrent скачан:  29 раз   |   
Раздают:  1  
   
Загрузка...
 
Автор Сообщение

Umakiro

avatar Umakiro


National Youth Jazz Orchestra - In Control [1983] [Live album]
Жанр: Jazz, Modern Big Band
Год выпуска диска: 1995
Производитель диска: UK
Аудио кодек: APE
Тип рипа: image+.cue
Битрейт аудио: lossless
Продолжительность: 1:18:15

Источник: RapidShare
Трэклист:
01. High Speed Gas (4:18)
02. Willow, Green Willow (5:16)
03. El Sid (5:35)
04. Groovin' with Gas (7:02)
05. You were Marvellous, Darling (5:29)
06. Miles Away (4:17)
07. In Control (9:18)
08. 50,000 Flies Can't be Wrong (4:44)
09. Vilamoura (7:02)
10. Off-Shore Peers (6:09)
11. Gas Mark 2 (6:54)
12. Don't Drink on an Empty Head (12:12)
 
Exact Audio Copy V0.99 prebeta 4 from 23. January 2008

EAC extraction logfile from 2. February 2008, 12:55

National Youth Jazz Orchestra / In Control

Used drive : BENQ DVD LS DW1655 Adapter: 1 ID: 0

Read mode : SecureUtilize accurate stream : YesDefeat audio cache : YesMake use of C2 pointers : No

Read offset correction : 618Overread into Lead-In and Lead-Out : NoFill up missing offset samples with silence : YesDelete leading and trailing silent blocks : NoNull samples used in CRC calculations : NoUsed interface : Native Win32 interface for Win NT & 2000

Used output format : Internal WAV RoutinesSample format : 44.100 Hz; 16 Bit; Stereo

TOC of the extracted CD

Track | Start | Length | Start sector | End sector --------------------------------------------------------- 1 | 0:00.32 | 4:17.63 | 32 | 19369 2 | 4:18.20 | 5:16.12 | 19370 | 43081 3 | 9:34.32 | 5:34.55 | 43082 | 68186 4 | 15:09.12 | 7:01.70 | 68187 | 99831 5 | 22:11.07 | 5:28.55 | 99832 | 124486 6 | 27:39.62 | 4:16.45 | 124487 | 143731 7 | 31:56.32 | 9:17.63 | 143732 | 185569 8 | 41:14.20 | 4:44.37 | 185570 | 206906 9 | 45:58.57 | 7:02.13 | 206907 | 238569 10 | 53:00.70 | 6:08.42 | 238570 | 266211 11 | 59:09.37 | 6:53.55 | 266212 | 297241 12 | 66:03.17 | 12:12.15 | 297242 | 352156

Range status and errors

Selected range

Filename C:\temp\National Youth Jazz Orchestra - In Control.wav

Peak level 100.0 % Range quality 100.0 % Copy CRC 87C00E84 Copy OK

No errors occurred

AccurateRip summary

Track 1 accurately ripped (confidence 1) [C57A3C7B]Track 2 accurately ripped (confidence 1) [C54F2065]Track 3 accurately ripped (confidence 1) [33A3CD0D]Track 4 accurately ripped (confidence 1) [BDAAC7D4]Track 5 accurately ripped (confidence 1) [E0D035CE]Track 6 accurately ripped (confidence 1) [3E4EAD0D]Track 7 accurately ripped (confidence 1) [E2AE5A15]Track 8 accurately ripped (confidence 1) [F1A475F9]Track 9 accurately ripped (confidence 1) [DCD43181]Track 10 accurately ripped (confidence 1) [6DCF03D0]Track 11 accurately ripped (confidence 1) [7F9DC3A7]Track 12 accurately ripped (confidence 1) [B60E86A7]

All tracks accurately ripped

End of status report
 
-----------------------

DON'T MODIFY THIS FILE

-----------------------

PERFORMER: auCDtect Task Manager, ver. 1.0.3 B1 build 1.0.3.0Copyright (c) 2008, 2009 y-soft. All rights reservedhttp://y-soft.110mb.com

ANALYZER: auCDtect: CD records authenticity detector, version 0.8.2Copyright (c) 2004 Oleg Berngardt. All rights reserved.Copyright (c) 2004 Alexander Djourik. All rights reserved.

FILE: National Youth Jazz Orchestra - In Control.ape Size: 472920808 Hash: 5071D986E5F55BD892D210FD0EF09682 Accuracy: -m0 Conclusion: CDDA 99% Signature: 509BF8F5FD3146870FB90EA600F5AFE9330CAFD9





Трекер:  [ 27-Янв-2012 16:31 ]

  

Скачать .torrent

Размер .torrent файла 18 KB


Размер: 452 MB
Хэш (hash) релиза: b547bf6204ceb83d1df8918da8f57625ed0d35e6

Еще никто не оставлял запись к записи скачать торрент National Youth Jazz Orchestra - In Control . Будь первым!

!Обратная связь