Скачать через торрент музыку National Youth Jazz Orchestra — Remembrance — 1991, FLAC бесплатно без регистрации torrent

Если у вас наблюдаются проблемы со скриншотами, переходом по ссылками, скачиванием торрентов - проблемы в блокировщике рекламы AdBlock. #хорошегоДня!


Статистика раздачи
Размер:  392 MB   |    Зарегистрирован:  5 лет 8 месяцев   |    .torrent скачан:  39 раз   |   
Раздают:  1  
   
Загрузка...
 
Автор Сообщение

Umakiro

avatar Umakiro


National Youth Jazz Orchestra — Remembrance

Жанр: Big Band
Год издания диска: 1991
Лейбл: NYJO
Номер по каталогу: NYJCD 011
Аудио кодек: FLAC (*.flac)
Тип рипа: image+.cue
Битрейт аудио: lossless
Продолжительность: 64:34
Риппер: PCWhizzkid
Сканы есть

Треклист:
01. Remembrance (for Jim) (8:26)
02. Remembrance (for Chris/Eamonn) (4:15)
03. Remembrance (for Kenny/Charlie (8:01)
04. Remembrance (for Valery) (1:30)
05. I'll Never Forget (5:12)
06. Half-Steps (5:16)
07. Snakes And Ladders (5:41)
08. Long Hot Summer (5:25)
09. Rodeo (3:13)
10. Yessica (5:00)
11. Take The C & A 'Trane (5:25)
12. Almost There (4:17)
13. Give Up (2:54)
 
 
Exact Audio Copy V1.0 beta 1 from 15. November 2010

EAC extraction logfile from 8. April 2011, 17:05

NYJO / Remembrance

Used drive : HL-DT-STDVDRAM GH22NS40 Adapter: 4 ID: 0

Read mode : SecureUtilize accurate stream : YesDefeat audio cache : YesMake use of C2 pointers : No

Read offset correction : 667Overread into Lead-In and Lead-Out : NoFill up missing offset samples with silence : YesDelete leading and trailing silent blocks : NoNull samples used in CRC calculations : YesUsed interface : Native Win32 interface for Win NT & 2000

Used output format : User Defined EncoderSelected bitrate : 768 kBit/sQuality : HighAdd ID3 tag : NoCommand line compressor : C:\Program Files (x86)\Exact Audio Copy\FLAC\FLAC.EXEAdditional command line options : -6 -V -T "ARTIST=%a" -T "TITLE=%t" -T "ALBUM=%g" -T "DATE=%y" -T "TRACKNUMBER=%n" -T "GENRE=%m" -T "COMMENT=%e" %j--picture="%i"%j %s -o %d

TOC of the extracted CD

Track | Start | Length | Start sector | End sector --------------------------------------------------------- 1 | 0:00.33 | 8:26.02 | 33 | 37984 2 | 8:26.35 | 4:15.30 | 37985 | 57139 3 | 12:41.65 | 8:01.13 | 57140 | 93227 4 | 20:43.03 | 1:30.22 | 93228 | 99999 5 | 22:13.25 | 5:11.38 | 100000 | 123362 6 | 27:24.63 | 5:15.62 | 123363 | 147049 7 | 32:40.50 | 5:40.58 | 147050 | 172607 8 | 38:21.33 | 5:24.55 | 172608 | 196962 9 | 43:46.13 | 3:13.20 | 196963 | 211457 10 | 46:59.33 | 4:59.70 | 211458 | 233952 11 | 51:59.28 | 5:24.47 | 233953 | 258299 12 | 57:24.00 | 4:16.48 | 258300 | 277547 13 | 61:40.48 | 2:54.05 | 277548 | 290602

Range status and errors

Selected range

Filename T:\NYJO - Remembrance.wav

Peak level 100.0 % Extraction speed 0.2 X Range quality 100.0 % Test CRC 9331F765 Copy CRC 9331F765 Copy OK

No errors occurred

AccurateRip summary

Track 1 not present in databaseTrack 2 not present in databaseTrack 3 not present in databaseTrack 4 not present in databaseTrack 5 not present in databaseTrack 6 not present in databaseTrack 7 not present in databaseTrack 8 not present in databaseTrack 9 not present in databaseTrack 10 not present in databaseTrack 11 not present in databaseTrack 12 not present in databaseTrack 13 not present in database

None of the tracks are present in the AccurateRip database

End of status report

==== Log checksum EE9C157AD74B6E459866D622AD3CEB3DDA27E0D0753EE512B91F69F557AC44A0 ====
 
REM GENRE "Big Band"REM DATE 1991REM DISCID A50F220DREM COMMENT "ExactAudioCopy v1.0b1"PERFORMER "National Youth Jazz Orchestra"TITLE "Remembrance"FILE "NYJO - Remembrance.flac" WAVE TRACK 01 AUDIO TITLE "Remembrance (for Jim)" PERFORMER "National Youth Jazz Orchestra" INDEX 00 00:00:00 INDEX 01 00:00:33 TRACK 02 AUDIO TITLE "Remembrance (for Chris/Eamonn)" PERFORMER "National Youth Jazz Orchestra" INDEX 00 08:23:70 INDEX 01 08:26:35 TRACK 03 AUDIO TITLE "Remembrance (for Kenny/Charlie" PERFORMER "National Youth Jazz Orchestra" INDEX 00 12:38:73 INDEX 01 12:41:65 TRACK 04 AUDIO TITLE "Remembrance (for Valery)" PERFORMER "National Youth Jazz Orchestra" INDEX 01 20:43:03 TRACK 05 AUDIO TITLE "I'll Never Forget" PERFORMER "National Youth Jazz Orchestra" INDEX 00 22:08:65 INDEX 01 22:13:25 TRACK 06 AUDIO TITLE "Half-Steps" PERFORMER "National Youth Jazz Orchestra" INDEX 00 27:21:40 INDEX 01 27:24:63 TRACK 07 AUDIO TITLE "Snakes And Ladders" PERFORMER "National Youth Jazz Orchestra" INDEX 00 32:37:55 INDEX 01 32:40:50 TRACK 08 AUDIO TITLE "Long Hot Summer" PERFORMER "National Youth Jazz Orchestra" INDEX 00 38:18:28 INDEX 01 38:21:33 TRACK 09 AUDIO TITLE "Rodeo" PERFORMER "National Youth Jazz Orchestra" INDEX 00 43:44:28 INDEX 01 43:46:13 TRACK 10 AUDIO TITLE "Yessica" PERFORMER "National Youth Jazz Orchestra" INDEX 00 46:57:08 INDEX 01 46:59:33 TRACK 11 AUDIO TITLE "Take The C & A 'Trane" PERFORMER "National Youth Jazz Orchestra" INDEX 00 51:56:30 INDEX 01 51:59:28 TRACK 12 AUDIO TITLE "Almost There" PERFORMER "National Youth Jazz Orchestra" INDEX 00 57:21:60 INDEX 01 57:24:00 TRACK 13 AUDIO TITLE "Give Up" PERFORMER "National Youth Jazz Orchestra" INDEX 00 61:37:13 INDEX 01 61:40:48
Tracks 1-4:
Reeds: Richard Symons, Nigel Hitchcock, Alan Ladds, Clive Hitchcock, Dave O’Higgins, Simon Currie, Julie Davis.
Trumpets: Russell Cook, Alan Berlyn, Noel Langley, Paul Cooper, Paul Higgs, Richard Sidwell.
Trombones: Mark Nightingale, Andy Hutchinson, Adrian Lane, Colin Hill, Nigel Barr.
French Horn: Liz Price
Guitars: Paul Stacey, Phil Hudson.
Bass-Guitar: Dave Hage
Drums: Mike Bradley,
Percussion: Ian Thomas
Piano: Dave Arch
Directed by Paul Hart.

Track 9:
Trumpets: Ian Wood, Lance Kelly, Mark White, Peter Cooper, Paul Cooper, Martin Shaw.
Trombones: Mark Nightingale, Dennis Rollins, Mark Bassey, Andy Hutchinson, Alastair Sinclair.
French Horn: Jonathon Jaggard
Saxes: Clifford Tracy, Adrian Revell, Allan Ladds, Scott Garland, Alison Brown.
Flute: Julie Davis
Piano: Peter Murray
Bass Guitar: Phil Mulford
Guitar: Mike Eaves
Drums: Chris Dagley
Percussion: Keith Fairbairn, Bill Pamplin.
The Orchestra Directed by Paul Hart.

Tracks 5, 6, 10-13:
Trumpets: Ian Wood, Mark White, Martin Shaw, Mark Cumberland, Gerard Presencer, Pat Fradgley, Oliver Preece.
Trombones: Mark Nightingale, Andy Hutchinson, Dennis Rollins, Mark Bassey, Tibor Hartmann.
French Horn: Clare Lintott
Saxes: Pete Long, Adrian Revell, Scott Garland, Alison Brown, Michael Smith, Howard McGill, Julie Williams.
Drums: Chris Dagley
Percussion: Gareth Roberts, Chris Wells.
Vocals: Sarah Ann Gilbertson (also voice).
NYJO directed by Bill Ashton, Paul Higgs, Mark Nightingale, Oliver Ledbury, Mark Bassey.

Tracks 7, 8:
Trumpets: Ian Wood, Mark Cumberland, Olly Preece, Gerard Presencer, Fred Maxwell, Neil Yates, Paul Cooper, Martin Shaw, Mark White.
Trombones: Dennis Rollins, Pat Hartley, Winston Rollins, Tracy Holloway, Richard Henry, Mark Nightingale, Brian Archer.
Saxophones: Michael Smith, Howard McGill, Scott Garland, Adrian Revell, Pete Long, Melanie Bush, Nigel Crane.
French Horn: Clare Lintott
Flute: Julie Davis
Piano: Steve Hill, Clive Dunstall
Guitar: James Longworth
Bass: Mark Ong
Drums: Chris Dagley
Percussion: Steve Smith and John Robinson


Трекер:  [ 27-Янв-2012 16:31 ]

  

Скачать .torrent

Размер .torrent файла 8 KB


Размер: 392 MB
Хэш (hash) релиза: 078473c49ec847d7223aa75f3d705091da14949f

Еще никто не оставлял запись к записи скачать торрент National Youth Jazz Orchestra — Remembrance — 1991, FLAC . Будь первым!

!Обратная связь