Скачать через торрент музыку National Youth Jazz Orchestra — Hallmark бесплатно без регистрации torrent

Если у вас наблюдаются проблемы со скриншотами, переходом по ссылками, скачиванием торрентов - проблемы в блокировщике рекламы AdBlock. #хорошегоДня!


Статистика раздачи
Размер:  453 MB   |    Зарегистрирован:  5 лет 8 месяцев   |    .torrent скачан:  31 раз   |   
Раздают:  1  
   
Загрузка...
 
Автор Сообщение

Umakiro

avatar Umakiro


National Youth Jazz Orchestra — Hallmark (1993)

Жанр: Big Band
Год издания диска: 1994
Лейбл: NYJO
Номер по каталогу: NYJ CD 015
Аудио кодек: FLAC (*.flac)
Тип рипа: image+.cue
Битрейт аудио: lossless
Продолжительность: 70:45
Риппер: PCWhizzkid
Сканы есть

Треклист:
01. Hallmark (5:26)
02. I Have Been Here Before (5:10)
03. Blood Orange (7:15)
04. Adeus Tristeza (4:53)
05. Samba For Cheryl (5:29)
06. Have You Seen Them Cakes (6:59)
07. U-Turn (5:23)
08. Suits Me (6:00)
09. While The Cat's Away (4:47)
10. Reepicheep (8:53)
11. Tara's Tuesday (6:03)
12. Castles In Spain (4:27)
 
 
Exact Audio Copy V1.0 beta 1 from 15. November 2010

EAC extraction logfile from 17. April 2011, 17:18

National Youth Jazz Orchestra (NYJO) / Hallmark

Used drive : HL-DT-STDVDRAM GH22NS40 Adapter: 3 ID: 0

Read mode : SecureUtilize accurate stream : YesDefeat audio cache : YesMake use of C2 pointers : No

Read offset correction : 667Overread into Lead-In and Lead-Out : NoFill up missing offset samples with silence : YesDelete leading and trailing silent blocks : NoNull samples used in CRC calculations : YesUsed interface : Native Win32 interface for Win NT & 2000

Used output format : User Defined EncoderSelected bitrate : 768 kBit/sQuality : HighAdd ID3 tag : NoCommand line compressor : C:\Program Files (x86)\Exact Audio Copy\FLAC\FLAC.EXEAdditional command line options : -6 -V -T "ARTIST=%a" -T "TITLE=%t" -T "ALBUM=%g" -T "DATE=%y" -T "TRACKNUMBER=%n" -T "GENRE=%m" -T "COMMENT=%e" %j--picture="%i"%j %s -o %d

TOC of the extracted CD

Track | Start | Length | Start sector | End sector --------------------------------------------------------- 1 | 0:00.33 | 5:26.37 | 33 | 24519 2 | 5:26.70 | 5:10.18 | 24520 | 47787 3 | 10:37.13 | 7:14.52 | 47788 | 80389 4 | 17:51.65 | 4:52.63 | 80390 | 102352 5 | 22:44.53 | 5:28.50 | 102353 | 127002 6 | 28:13.28 | 6:59.32 | 127003 | 158459 7 | 35:12.60 | 5:22.40 | 158460 | 182649 8 | 40:35.25 | 6:00.23 | 182650 | 209672 9 | 46:35.48 | 4:46.72 | 209673 | 231194 10 | 51:22.45 | 8:52.53 | 231195 | 271147 11 | 60:15.23 | 6:03.35 | 271148 | 298407 12 | 66:18.58 | 4:26.50 | 298408 | 318407

Range status and errors

Selected range

Filename T:\National Youth Jazz Orchestra (NYJO) - Hallmark.wav

Peak level 100.0 % Extraction speed 0.1 X Range quality 100.0 % Test CRC F262B0F1 Copy CRC F262B0F1 Copy OK

No errors occurred

AccurateRip summary

Track 1 accurately ripped (confidence 1) [1BC991E2]Track 2 accurately ripped (confidence 1) [332C85D8]Track 3 accurately ripped (confidence 1) [EAF5CE67]Track 4 accurately ripped (confidence 1) [7B95E52D]Track 5 accurately ripped (confidence 1) [28451E62]Track 6 accurately ripped (confidence 1) [E9BA9D1E]Track 7 accurately ripped (confidence 1) [7FCA9E58]Track 8 accurately ripped (confidence 1) [C75B02FE]Track 9 accurately ripped (confidence 1) [B277A4DE]Track 10 accurately ripped (confidence 1) [1922EE44]Track 11 accurately ripped (confidence 1) [A359B65A]Track 12 accurately ripped (confidence 1) [CB7477D2]

All tracks accurately ripped

End of status report

==== Log checksum A42D6A5FE008895384517241E25B3249FF32441C164E2DA5A6FCC648872AEF04 ====
 
REM GENRE "Big Band"REM DATE 1993REM DISCID B610950CREM COMMENT "ExactAudioCopy v1.0b1"PERFORMER "National Youth Jazz Orchestra"TITLE "Hallmark"FILE "National Youth Jazz Orchestra - Hallmark.flac" WAVE TRACK 01 AUDIO TITLE "Hallmark" PERFORMER "National Youth Jazz Orchestra" INDEX 00 00:00:00 INDEX 01 00:00:33 TRACK 02 AUDIO TITLE "I Have Been Here Before" PERFORMER "National Youth Jazz Orchestra" INDEX 00 05:26:10 INDEX 01 05:26:70 TRACK 03 AUDIO TITLE "Blood Orange" PERFORMER "National Youth Jazz Orchestra" INDEX 00 10:35:28 INDEX 01 10:37:13 TRACK 04 AUDIO TITLE "Adeus Tristeza" PERFORMER "National Youth Jazz Orchestra" INDEX 00 17:51:13 INDEX 01 17:51:65 TRACK 05 AUDIO TITLE "Samba For Cheryl" PERFORMER "National Youth Jazz Orchestra" INDEX 00 22:43:65 INDEX 01 22:44:53 TRACK 06 AUDIO TITLE "Have You Seen Them Cakes" PERFORMER "National Youth Jazz Orchestra" INDEX 00 28:12:35 INDEX 01 28:13:28 TRACK 07 AUDIO TITLE "U-Turn" PERFORMER "National Youth Jazz Orchestra" INDEX 00 35:11:38 INDEX 01 35:12:60 TRACK 08 AUDIO TITLE "Suits Me" PERFORMER "National Youth Jazz Orchestra" INDEX 00 40:34:30 INDEX 01 40:35:25 TRACK 09 AUDIO TITLE "While The Cat's Away" PERFORMER "National Youth Jazz Orchestra" INDEX 00 46:34:43 INDEX 01 46:35:48 TRACK 10 AUDIO TITLE "Reepicheep" PERFORMER "National Youth Jazz Orchestra" INDEX 00 51:21:58 INDEX 01 51:22:45 TRACK 11 AUDIO TITLE "Tara's Tuesday" PERFORMER "National Youth Jazz Orchestra" INDEX 00 60:14:38 INDEX 01 60:15:23 TRACK 12 AUDIO TITLE "Castles In Spain" PERFORMER "National Youth Jazz Orchestra" INDEX 00 66:17:03 INDEX 01 66:18:58


Трекер:  [ 27-Янв-2012 16:30 ]

  

Скачать .torrent

Размер .torrent файла 10 KB


Размер: 453 MB
Хэш (hash) релиза: af759a1ea7e995d438c053fcc0ba7e4f56bedeab

Еще никто не оставлял запись к записи скачать торрент National Youth Jazz Orchestra — Hallmark . Будь первым!

!Обратная связь