Скачать через торрент музыку National Youth Jazz Orchestra — Cottoning On — 1995, FLAC бесплатно без регистрации torrent

Если у вас наблюдаются проблемы со скриншотами, переходом по ссылками, скачиванием торрентов - проблемы в блокировщике рекламы AdBlock. #хорошегоДня!


Статистика раздачи
Размер:  472 MB   |    Зарегистрирован:  5 лет 8 месяцев   |    .torrent скачан:  44 раза   |   
Раздают:  1  
   
Загрузка...
 
Автор Сообщение

Umakiro

avatar Umakiro


National Youth Jazz Orchestra — Cottoning On

Жанр: Big Band
Год издания диска: 1995
Лейбл: NYJO Records
Номер по каталогу: NYJ CD 016
Аудиокодек: FLAC (*.flac)
Тип рипа: image+.cue
Битрейт аудио: lossless
Продолжительность: 69:20
Риппер: PCWhizzkid
Сканы есть

Треклист:
01. Sea Island Samba (9:32)
02. Miss Malfatti, I Presume (5:12)
03. Cottoning On (6:05)
04. A Lady Can Tell (4:09)
05. One For Oscar (3:49)
06. Tenor Each Way (8:09)
07. Blues For Duke (8:14)
08. Be Gentle (5:08)
09. The Night Is A Pup (6:21)
10. Night Slide (9:13)
11. Gasbag Blues (3:28)

Rec.: at Ronnie Scott’s Club, London, March 1994 and March 1995.
 
 
Exact Audio Copy V1.0 beta 1 from 15. November 2010

EAC extraction logfile from 18. June 2011, 15:05

National Youth Jazz Orchestra (NYJO) / Cottoning On

Used drive : HL-DT-STDVDRAM GH22NS40 Adapter: 5 ID: 0

Read mode : SecureUtilize accurate stream : YesDefeat audio cache : YesMake use of C2 pointers : No

Read offset correction : 667Overread into Lead-In and Lead-Out : NoFill up missing offset samples with silence : YesDelete leading and trailing silent blocks : NoNull samples used in CRC calculations : YesUsed interface : Native Win32 interface for Win NT & 2000

Used output format : User Defined EncoderSelected bitrate : 1024 kBit/sQuality : HighAdd ID3 tag : NoCommand line compressor : C:\Program Files (x86)\Exact Audio Copy\FLAC\FLAC.EXEAdditional command line options : -6 -V -T "ARTIST=%a" -T "TITLE=%t" -T "ALBUM=%g" -T "DATE=%y" -T "TRACKNUMBER=%n" -T "GENRE=%m" -T "COMMENT=%e" %j--picture="%i"%j %s -o %d

TOC of the extracted CD

Track | Start | Length | Start sector | End sector --------------------------------------------------------- 1 | 0:00.32 | 9:32.00 | 32 | 42931 2 | 9:32.32 | 5:12.00 | 42932 | 66331 3 | 14:44.32 | 6:05.00 | 66332 | 93706 4 | 20:49.32 | 4:09.00 | 93707 | 112381 5 | 24:58.32 | 3:48.50 | 112382 | 129531 6 | 28:47.07 | 8:09.13 | 129532 | 166219 7 | 36:56.20 | 8:14.37 | 166220 | 203306 8 | 45:10.57 | 5:07.50 | 203307 | 226381 9 | 50:18.32 | 6:21.25 | 226382 | 254981 10 | 56:39.57 | 9:12.50 | 254982 | 296431 11 | 65:52.32 | 3:28.00 | 296432 | 312031

Range status and errors

Selected range

Filename T:\National Youth Jazz Orchestra (NYJO) - Cottoning On.wav

Peak level 100.0 % Extraction speed 0.1 X Range quality 99.9 % Copy CRC 498D43B8 Copy OK

No errors occurred

AccurateRip summary

Track 1 accurately ripped (confidence 2) [9DF784D7]Track 2 accurately ripped (confidence 2) [F8A420D0]Track 3 accurately ripped (confidence 2) [68CD66AF]Track 4 accurately ripped (confidence 2) [3C8977D0]Track 5 accurately ripped (confidence 2) [92029084]Track 6 accurately ripped (confidence 2) [57F9D44E]Track 7 accurately ripped (confidence 2) [C4A49612]Track 8 accurately ripped (confidence 2) [DFEB72FD]Track 9 accurately ripped (confidence 2) [2275D82C]Track 10 accurately ripped (confidence 2) [322F7B80]Track 11 accurately ripped (confidence 3) [4A83E1BA]

All tracks accurately ripped

End of status report

==== Log checksum 16C4FEC8FF37AC0272A207328CCAB06BD86B247F7E5A39E65957939A4118A925 ====
 
REM GENRE "Big Band"REM DATE 1995REM DISCID 8510400BREM COMMENT "ExactAudioCopy v1.0b1"PERFORMER "National Youth Jazz Orchestra"TITLE "Cottoning On"FILE "NYJO - Cottoning On.flac" WAVE TRACK 01 AUDIO TITLE "Sea Island Samba" PERFORMER "National Youth Jazz Orchestra" INDEX 00 00:00:00 INDEX 01 00:00:32 TRACK 02 AUDIO TITLE "Miss Malfatti, I Presume" PERFORMER "National Youth Jazz Orchestra" INDEX 01 09:32:32 TRACK 03 AUDIO TITLE "Cottoning On" PERFORMER "National Youth Jazz Orchestra" INDEX 01 14:44:32 TRACK 04 AUDIO TITLE "A Lady Can Tell" PERFORMER "National Youth Jazz Orchestra" INDEX 01 20:49:32 TRACK 05 AUDIO TITLE "One For Oscar" PERFORMER "National Youth Jazz Orchestra" INDEX 01 24:58:32 TRACK 06 AUDIO TITLE "Tenor Each Way" PERFORMER "National Youth Jazz Orchestra" INDEX 01 28:47:07 TRACK 07 AUDIO TITLE "Blues For Duke" PERFORMER "National Youth Jazz Orchestra" INDEX 00 36:55:20 INDEX 01 36:56:20 TRACK 08 AUDIO TITLE "Be Gentle" PERFORMER "National Youth Jazz Orchestra" INDEX 01 45:10:57 TRACK 09 AUDIO TITLE "The Night Is A Pup" PERFORMER "National Youth Jazz Orchestra" INDEX 01 50:18:32 TRACK 10 AUDIO TITLE "Night Slide" PERFORMER "National Youth Jazz Orchestra" INDEX 01 56:39:57 TRACK 11 AUDIO TITLE "Gasbag Blues" PERFORMER "National Youth Jazz Orchestra" INDEX 01 65:52:32
A. March 1995
Trumpets: Mick Ball, Andy Cuss, Brad Mason, Mike Thomas, Pat White.
Trombones: Adrian Hallowell, Ashley Horton, Elliot Mason, Jeremy Price, Andy Rogers.
Saxophones: Ben Castle, Lisa Grahame, Jon Halton, James Hunt, Howard McGill.
Piano: Simon Carter
Guitar: Phil Robson
Bass: Neil Williams
Drums: Chris Dagley
Percussion: James Mack
Vocals: Jenny Howe
The Orchestra was directed by Bill Ashton and Matt Wates.

B. March 1994 As A but
Trumpets: Jim Lynch, Olly Preece, Neil Yates replace Mick Ball, Mike Thomas, Pat White.
Trombones: Mark Penny, Malcolm Smith replace Ashley Horton, Andy Rogers.
Saxophones: Mick Foster, Jim Tomlinson replace Ben Castle, John Halton.
Guitar: Andy Jones replaces Phil Robson.
Bass: Mark Ong replaces Neil Williams.

C.
Special Guests: James Langton (vocals) Mark Nightingale (trombone).

Recording Engineer: Chris Lewis, Mixed by Miles Ashton at Temple Music).
Produced by Bill and Miles Ashton.


Трекер:  [ 27-Янв-2012 16:30 ]

  

Скачать .torrent

Размер .torrent файла 10 KB


Размер: 472 MB
Хэш (hash) релиза: da86f62c12f25e35db6c7e3f1f156cc52d151576

Еще никто не оставлял запись к записи скачать торрент National Youth Jazz Orchestra — Cottoning On — 1995, FLAC . Будь первым!

!Обратная связь