Скачать через торрент музыку National Youth Jazz Orchestra — London Pride — 2006, FLAC бесплатно без регистрации torrent

Если у вас наблюдаются проблемы со скриншотами, переходом по ссылками, скачиванием торрентов - проблемы в блокировщике рекламы AdBlock. #хорошегоДня!


Статистика раздачи
Размер:  451 MB   |    Зарегистрирован:  5 лет 8 месяцев   |    .torrent скачан:  33 раза   |   
Раздают:  1  
   
Загрузка...
 
Автор Сообщение

Umakiro

avatar Umakiro


National Youth Jazz Orchestra — London Pride

Жанр: Big Band
Год издания диска: 2006
Лейбл: NYJO
Номер по каталогу: NTJCD 0025
Аудиокодек: FLAC (*.flac)
Тип рипа: image+.cue
Битрейт аудио: lossless
Продолжительность: 75:50
Риппер: PCWhizzkid
Сканы есть

Треклист:
01. Five Ring Fanfare (0:55)
02. London Pride (3:34)
03. Citrus Fruit With Bells On (6:04)
04. A Nightingale Swang (5:54)
05. London (4:25)
06. Lisson Groove (3:49)
07. My Old Dutch (6:45)
08. London's Burning (7:07)
09. New In London (5:00)
10. Pop Goes The Weasel (5:38)
11. A Foggy Day (5:35)
12. London By Day (4:56)
13. 2:02 To Tooting (9:13)
14. Follow The Van (6:54)
 
 
Exact Audio Copy V1.0 beta 1 from 15. November 2010

EAC extraction logfile from 11. July 2011, 18:48

National Youth Jazz Orchestra (NYJO) / London Pride

Used drive : HL-DT-STDVDRAM GH22NS40 Adapter: 5 ID: 0

Read mode : SecureUtilize accurate stream : YesDefeat audio cache : YesMake use of C2 pointers : No

Read offset correction : 667Overread into Lead-In and Lead-Out : NoFill up missing offset samples with silence : YesDelete leading and trailing silent blocks : NoNull samples used in CRC calculations : YesUsed interface : Native Win32 interface for Win NT & 2000

Used output format : User Defined EncoderSelected bitrate : 1024 kBit/sQuality : HighAdd ID3 tag : NoCommand line compressor : C:\Program Files (x86)\Exact Audio Copy\FLAC\FLAC.EXEAdditional command line options : -6 -V -T "ARTIST=%a" -T "TITLE=%t" -T "ALBUM=%g" -T "DATE=%y" -T "TRACKNUMBER=%n" -T "GENRE=%m" -T "COMMENT=%e" %j--picture="%i"%j %s -o %d

TOC of the extracted CD

Track | Start | Length | Start sector | End sector --------------------------------------------------------- 1 | 0:00.00 | 0:54.59 | 0 | 4108 2 | 0:54.59 | 3:33.53 | 4109 | 20136 3 | 4:28.37 | 6:03.56 | 20137 | 47417 4 | 10:32.18 | 5:54.13 | 47418 | 73980 5 | 16:26.31 | 4:24.71 | 73981 | 93851 6 | 20:51.27 | 3:49.14 | 93852 | 111040 7 | 24:40.41 | 6:45.21 | 111041 | 141436 8 | 31:25.62 | 7:07.15 | 141437 | 173476 9 | 38:33.02 | 5:00.26 | 173477 | 196002 10 | 43:33.28 | 5:38.09 | 196003 | 221361 11 | 49:11.37 | 5:35.29 | 221362 | 246515 12 | 54:46.66 | 4:55.61 | 246516 | 268701 13 | 59:42.52 | 9:12.72 | 268702 | 310173 14 | 68:55.49 | 6:53.65 | 310174 | 341213

Range status and errors

Selected range

Filename T:\National Youth Jazz Orchestra (NYJO) - London Pride\National Youth Jazz Orchestra (NYJO) - London Pride.wav

Peak level 94.4 % Extraction speed 0.2 X Range quality 100.0 % Test CRC 93BFC82B Copy CRC 93BFC82B Copy OK

No errors occurred

AccurateRip summary

Track 1 accurately ripped (confidence 1) [30BC6B13]Track 2 accurately ripped (confidence 1) [0C60461E]Track 3 accurately ripped (confidence 1) [304750CE]Track 4 accurately ripped (confidence 1) [5E4DC597]Track 5 accurately ripped (confidence 1) [CADB2A09]Track 6 accurately ripped (confidence 1) [D91F6C44]Track 7 accurately ripped (confidence 1) [600A0EBE]Track 8 accurately ripped (confidence 1) [2F8C1CE8]Track 9 accurately ripped (confidence 1) [0B0729D5]Track 10 accurately ripped (confidence 1) [F93BC151]Track 11 accurately ripped (confidence 1) [59EE5D99]Track 12 accurately ripped (confidence 1) [B0E17F77]Track 13 accurately ripped (confidence 1) [DD25187B]Track 14 accurately ripped (confidence 1) [97B401D4]

All tracks accurately ripped

End of status report

==== Log checksum ECC09CACC42A766277DE220879723F45E59D847FA1EF232D5E2238A4965EA018 ====
 
REM GENRE "Big Band"REM DATE 2006REM DISCID D211C50EREM COMMENT "ExactAudioCopy v1.0b1"PERFORMER "National Youth Jazz Orchestra"TITLE "London Pride"FILE "NYJO - London Pride.flac" WAVE TRACK 01 AUDIO TITLE "Five Ring Fanfare" PERFORMER "National Youth Jazz Orchestra" FLAGS DCP INDEX 01 00:00:00 TRACK 02 AUDIO TITLE "London Pride" PERFORMER "National Youth Jazz Orchestra" FLAGS DCP INDEX 01 00:54:59 TRACK 03 AUDIO TITLE "Citrus Fruit With Bells On" PERFORMER "National Youth Jazz Orchestra" FLAGS DCP INDEX 00 04:26:37 INDEX 01 04:28:37 TRACK 04 AUDIO TITLE "A Nightingale Swang" PERFORMER "National Youth Jazz Orchestra" FLAGS DCP INDEX 00 10:30:18 INDEX 01 10:32:18 TRACK 05 AUDIO TITLE "London" PERFORMER "National Youth Jazz Orchestra" FLAGS DCP INDEX 00 16:24:31 INDEX 01 16:26:31 TRACK 06 AUDIO TITLE "Lisson Groove" PERFORMER "National Youth Jazz Orchestra" FLAGS DCP INDEX 00 20:49:27 INDEX 01 20:51:27 TRACK 07 AUDIO TITLE "My Old Dutch" PERFORMER "National Youth Jazz Orchestra" FLAGS DCP INDEX 00 24:38:41 INDEX 01 24:40:41 TRACK 08 AUDIO TITLE "London's Burning" PERFORMER "National Youth Jazz Orchestra" FLAGS DCP INDEX 00 31:22:62 INDEX 01 31:25:62 TRACK 09 AUDIO TITLE "New In London" PERFORMER "National Youth Jazz Orchestra" FLAGS DCP INDEX 00 38:31:02 INDEX 01 38:33:02 TRACK 10 AUDIO TITLE "Pop Goes The Weasel" PERFORMER "National Youth Jazz Orchestra" FLAGS DCP INDEX 00 43:31:28 INDEX 01 43:33:28 TRACK 11 AUDIO TITLE "A Foggy Day" PERFORMER "National Youth Jazz Orchestra" FLAGS DCP INDEX 00 49:09:37 INDEX 01 49:11:37 TRACK 12 AUDIO TITLE "London By Day" PERFORMER "National Youth Jazz Orchestra" FLAGS DCP INDEX 00 54:44:66 INDEX 01 54:46:66 TRACK 13 AUDIO TITLE "2:02 To Tooting" PERFORMER "National Youth Jazz Orchestra" FLAGS DCP INDEX 00 59:40:52 INDEX 01 59:42:52 TRACK 14 AUDIO TITLE "Follow The Van" PERFORMER "National Youth Jazz Orchestra" FLAGS DCP INDEX 00 68:54:50 INDEX 01 68:55:49
Tracks #3, 4, 6, 9, 11, 13, 14 - Recorded @ The Cockpit, 15/04/2006, by Miles Ashton.

Trumpets: Alex Maynard, Jean-Paul Gervasoni, Evan Jolly, Freddie Gavita, Henry Armburg-Jennings.
Trombones: Alistair White, Jon Stokes, Billy Yates, Natalie Witts, Rhys Smith.
Horn: Chris Bishop.
Saxophones:Simon Meredith, Tommy Laurence, Dave Shulman, Nik Carter, Richard Shepherd.
Flute: Emily Hall
Piano: Will Bartlett, Joe Stilgoe (on 14 only).
Guitar: Tommy Emmerton
Bass: Paul Michael
Drums: James Maddren
Percussion: Scott Chapman, Lauren Derwent.
Vocals: Francesca Lewis, Lauren Derwent.

Tracks #1, 2, 5, 7, 8, 10, 12 - Recorded @ Joe & Co., 04/05/2006, by Miles Ashton.

Trumpets: Alex Maynard, Jean-Paul Gervasoni, Evan Jolly, Freddie Gavita, Henry Armburg-Jennings, Paul Eshelby (on 7 only).
Trombones: Jon Stokes, Tim Smart, Rob Harvey, Natalie Witts, Lewis Edney or Dan West.
Horn: Chris Bishop
Saxophones:Simon Meredith, Tommy Laurence or Sam Mayne, Dave Shulman, Nik Carter, Richard Shepherd.
Flute: Paul Greenwood
Piano: Will Bartlett
Guitar: Chris Allard
Bass: Paul Michael
Drums: James Maddren
Percussion: Mark MacDonald
Vocals: Atila Huseyin, Dame Cleo Laine.


Трекер:  [ 27-Янв-2012 16:30 ]

  

Скачать .torrent

Размер .torrent файла 9 KB


Размер: 451 MB
Хэш (hash) релиза: aa962f6c25a33f811b374dcd96cf8a491c498113

Еще никто не оставлял запись к записи скачать торрент National Youth Jazz Orchestra — London Pride — 2006, FLAC . Будь первым!

!Обратная связь