Скачать через торрент музыку National Youth Jazz Orchestra — Maltese Cross — 1988, FLAC бесплатно без регистрации torrent

Если у вас наблюдаются проблемы со скриншотами, переходом по ссылками, скачиванием торрентов - проблемы в блокировщике рекламы AdBlock. #хорошегоДня!


Статистика раздачи
Размер:  395 MB   |    Зарегистрирован:  5 лет 8 месяцев   |    .torrent скачан:  33 раза   |   
Раздают:  1  
   
Загрузка...
 
Автор Сообщение

Umakiro

avatar Umakiro


National Youth Jazz Orchestra — Maltese Cross

Жанр: Big Band
Год издания диска: 1988
Издатель (лейбл): NYJO Records
Номер по каталогу: NYO CD008
Аудиокодек: FLAC (*.flac)
Тип рипа: image+.cue
Битрейт аудио: lossless
Продолжительность: 65:06
Релизер: Mr Jazz
Наличие сканов в содержимом раздачи: да

Треклист:
01. Foldback (7:47)
02. Looking Back (5:25)
03. Someone (3:13)
04. Summer Song (5:58)
05. Maltese Cross (3:39)
06. General Custer's Retreat From Moscow (4:05)
07. I Remember Tracy (5:53)
08. The Five Brothers (4:39)
09. Marrakesh (4:12)
10. It's Up To You (4:15)
11. My Old Man (5:27)
12. Blowing Hills (10:34)
 
 
Exact Audio Copy V1.0 beta 1 from 15. November 2010

EAC extraction logfile from 28. July 2011, 13:54

National Youth Jazz Orchestra (NYJO) / Maltese Cross

Used drive : HL-DT-STDVDRAM GH22NS40 Adapter: 5 ID: 0

Read mode : SecureUtilize accurate stream : YesDefeat audio cache : YesMake use of C2 pointers : No

Read offset correction : 667Overread into Lead-In and Lead-Out : NoFill up missing offset samples with silence : YesDelete leading and trailing silent blocks : NoNull samples used in CRC calculations : YesUsed interface : Native Win32 interface for Win NT & 2000

Used output format : User Defined EncoderSelected bitrate : 1024 kBit/sQuality : HighAdd ID3 tag : NoCommand line compressor : C:\Program Files (x86)\Exact Audio Copy\FLAC\FLAC.EXEAdditional command line options : -6 -V -T "ARTIST=%a" -T "TITLE=%t" -T "ALBUM=%g" -T "DATE=%y" -T "TRACKNUMBER=%n" -T "GENRE=%m" -T "COMMENT=%e" %j--picture="%i"%j %s -o %d

TOC of the extracted CD

Track | Start | Length | Start sector | End sector --------------------------------------------------------- 1 | 0:00.00 | 7:46.70 | 0 | 35019 2 | 7:46.70 | 5:24.40 | 35020 | 59359 3 | 13:11.35 | 3:12.65 | 59360 | 73824 4 | 16:24.25 | 5:57.50 | 73825 | 100649 5 | 22:22.00 | 3:39.12 | 100650 | 117086 6 | 26:01.12 | 4:04.38 | 117087 | 135424 7 | 30:05.50 | 5:53.25 | 135425 | 161924 8 | 35:59.00 | 4:38.50 | 161925 | 182824 9 | 40:37.50 | 4:12.12 | 182825 | 201736 10 | 44:49.62 | 4:14.38 | 201737 | 220824 11 | 49:04.25 | 5:27.12 | 220825 | 245361 12 | 54:31.37 | 10:34.13 | 245362 | 292924

Range status and errors

Selected range

Filename T:\National Youth Jazz Orchestra (NYJO) - Maltese Cross\National Youth Jazz Orchestra (NYJO) - Maltese Cross.wav

Peak level 100.0 % Extraction speed 0.3 X Range quality 99.9 % Copy CRC 08142F47 Copy OK

No errors occurred

AccurateRip summary

Track 1 accurately ripped (confidence 1) [D298B9E3]Track 2 cannot be verified as accurate (confidence 1) [3F861AF9], AccurateRip returned [14D42E14]Track 3 cannot be verified as accurate (confidence 1) [12438B13], AccurateRip returned [F26E4825]Track 4 accurately ripped (confidence 1) [39BACD8F]Track 5 accurately ripped (confidence 1) [3FF42C31]Track 6 accurately ripped (confidence 1) [96E0A142]Track 7 accurately ripped (confidence 1) [4375B3DB]Track 8 accurately ripped (confidence 1) [7E7398A9]Track 9 accurately ripped (confidence 1) [0B7EE637]Track 10 accurately ripped (confidence 1) [CFA0F353]Track 11 accurately ripped (confidence 1) [D9EBD3E5]Track 12 accurately ripped (confidence 1) [AED25226]

10 track(s) accurately ripped 2 track(s) could not be verified as accurate

Some tracks could not be verified as accurate

End of status report

==== Log checksum 5D8419DF2C0A7ADE9A326E12AD5332FF2AEDA2DA7301E6A9B706D3B9BC644F7B ====
 
REM GENRE JazzREM DATE 1988REM DISCID BB0F410CREM COMMENT "ExactAudioCopy v1.0b1"PERFORMER "National Youth Jazz Orchestra"TITLE "Maltese Cross"FILE "NYJO - Maltese Cross.flac" WAVE TRACK 01 AUDIO TITLE "Foldback" PERFORMER "National Youth Jazz Orchestra" INDEX 01 00:00:00 TRACK 02 AUDIO TITLE "Looking Back" PERFORMER "National Youth Jazz Orchestra" INDEX 00 07:45:70 INDEX 01 07:46:70 TRACK 03 AUDIO TITLE "Someone" PERFORMER "National Youth Jazz Orchestra" INDEX 00 13:10:35 INDEX 01 13:11:35 TRACK 04 AUDIO TITLE "Summer Song" PERFORMER "National Youth Jazz Orchestra" INDEX 00 16:23:25 INDEX 01 16:24:25 TRACK 05 AUDIO TITLE "Maltese Cross" PERFORMER "National Youth Jazz Orchestra" INDEX 00 22:21:00 INDEX 01 22:22:00 TRACK 06 AUDIO TITLE "General Custer's Retreat From Moscow" PERFORMER "National Youth Jazz Orchestra" INDEX 00 26:00:25 INDEX 01 26:01:12 TRACK 07 AUDIO TITLE "I Remember Tracy" PERFORMER "National Youth Jazz Orchestra" INDEX 00 30:04:50 INDEX 01 30:05:50 TRACK 08 AUDIO TITLE "The Five Brothers" PERFORMER "National Youth Jazz Orchestra" INDEX 00 35:57:25 INDEX 01 35:59:00 TRACK 09 AUDIO TITLE "Marrakesh" PERFORMER "National Youth Jazz Orchestra" INDEX 00 40:37:00 INDEX 01 40:37:50 TRACK 10 AUDIO TITLE "It's Up To You" PERFORMER "National Youth Jazz Orchestra" INDEX 00 44:48:62 INDEX 01 44:49:62 TRACK 11 AUDIO TITLE "My Old Man" PERFORMER "National Youth Jazz Orchestra" INDEX 00 49:02:62 INDEX 01 49:04:25 TRACK 12 AUDIO TITLE "Blowing Hills" PERFORMER "National Youth Jazz Orchestra" INDEX 00 54:29:35 INDEX 01 54:31:37
In 1965 Bill Ashton, a teacher at a London school, formed the London Schools Jazz Orchestra. This was an organization in which youngsters could pursue musical ambitions in a setting that related to music which interested them, rather than forms imposed upon them by the educational hierarchy. Thanks to Ashton's persistence in the face of establishment hostility the orchestra survived, later becoming known as the London Youth Jazz Orchestra and, eventually, the National Youth Jazz Orchestra. In 1974 NYJO became a fully professional organization and remains the UK's only full-time professional big band playing jazz. Although Ashton's conception was to create an atmosphere in which young musicians could develop their craft, NYJO has long since passed the stage of being either a training ground or even a "youth" orchestra.

The extraordinarily high standard of musicianship demanded by the band means that newcomers to its ranks must have already achieved a very high standard of technical competence before auditioning. Ashton's leadership is a mixture of democracy and benign autocracy. The band's members choose the music, which varies from the brand-new to charts originally played by editions of NYJO that were on the road when present members were barely walking, and Ashton organizes the musicians' choices into an entertaining programme. Although the nature of the orchestra means that it is in an almost constant state of flux, NYJO has developed an identifiable sound. Much of the music that is played by the band is original, often written by members, and everything is especially arranged. While many arrangements are "in-house", others come from outside. Among the arrangers are Paul Higgs, David Lindup, Brian Priestley, Chris Smith, Terry Catharine, Bill Charleson, Neil Ardley, Alec Gould and Ashton. Many exceptional talents have passed through NYJO's ranks over the years, including Steve and Julian Argelles, Chris Hunter, Lance Ellington, Paul Hart, Dave O'Higgins, Phil Todd, Andy and Mark Nightingale, Stan Sulzmann, Chris Laurence, Richard Symons, Gerard Presencer and Guy Barker. Ashton's interest in songwriting has ensured a succession of good singers with the band, including Sumudu "Sunny" Jayatilaka, Carol Kenyon, Helen Sorrell and Litsa Davies.

Over the years NYJO has travelled extensively, appearing in various European countries and also visiting the USA. The band's many albums have proved successful and help spread the sound of a remarkable orchestra that, although effectively the creation of one man, has come to represent the best in big band jazz and consistently denies its name by being both international and fully mature.
(A) Trumpets: Noel Langley, Lance Kelly, Richard Sidwell, Pat Fradgley, Gerard Presencer, Paul Edmonds.
Trombones: Mark Nightingale, Colin Hill, Mark Bassey, Andy Hutchinson, Tibor Hartmann
Horn: Justin Mansell-Short.
Saxes: Nigel Hitchcock, Andy Panayi,, Clive Hitchcock, Adam Talbot, Scott Garland, Sarah Garbe, Pete Long, Richard Symons.
Piano: John R. W. G. Smith, Peter Murray.
Guitar: Mike Eaves
Bass Guitar: Phil Mulford, Don Richardson.
Drums: Mike Bradley, Mike Smith, Ian Thomas.
Percussion: Keith Fairbairn, Andy Gleadhill.
Directed by Bill Ashton, Paul Higgs, Phil Mulford.

(B) Trombones & Rhythm only. Mark da Silva replaces Bassey.

(C) Trumpets: Ian wood, Lance Kelly, Mark White, Peter Cooper, Paul Cooper, Martin Shaw.
Trombones: Mark Nightingale, Dennis Rollins, Mark Bassey, Andy Hutchinson, Alastair Sinclair.
Horns: Jonathon Jaggard, Simon Thomas.
Saxes: Clifford Tracy, Adrian Revell, Alan Ladds, Scott Garland, Alison Brown.
Flutes: Julie Davis, Paula Borrell.
Piano: Peter Murray (or Paul Honey).
Synth: Paul Honey
Bass Guitar: Phil Mulford
Guitar: Mike Evans
Drums: Chris Dagley
Percussion: Keith Fairbairn, Bill Pamplin.
Vocals: Lorraine Craig
Electric Violin: Paul Har
Orchestra Directed by: Paul Hart and Mark Nightingale.

(D) Trumpets: Russell Cook, Andy Mitchell, Noel Langley, Paul Higgs, Richard Sidwell.
Trombones: Mark Nightingale, Colin Hill, Andy Hutchinson, Adrian Lane, Nigel Barr.
French Horn: Liz Price
Reeds: Nigel Hitchcock, Alan Ladds, Clive Hitchcock, Dave O’Higgins, Simon Currie, Andy Panayi.
Piano: John R. W. G. Smith
Guitar: Mike Eaves
Bass Guitar: Dave Hage
Drums: Mike Smith
Percussion: Mike Bradley, Ian Thomas.

(E) Trumpets: Steve Sidwell, Paul Higgs, Mike O’Gorman, Andy Gibson, Guy Barker.
Trombones: Fayyaz Virji, Mark Nightingale, Colin Hill, Adrian Lane, Steve Aitken.
Horn: Liz Price
Reeds: Nigel Hitchcock, Dave O’Higgins, Simon Currie, Julie Davis.
Piano: John R. W. G. Smith
Guitar: Chris Watson
Bass: Don Richardson
Drums: Mike Smith
Percussion: Mike Bradley, Ian Thomas.

(F) Reeds: Nigel Hitchcock, Andy Schofield, Clive Hitchcock, David O’Higgins, Steve Cadd, Simon Currie, Julie Davis.
Trumpets: Noel Langley, Andy Mitchell, Paul Higgs, John Hinch, Richard Sidwell, Steve Titchener.
Trombones: Mark Nightingale, Colin Hill, Mark Da Silva, Phil Neil, Dave Stewart.
French Horn: Liz Price
Piano John R. W. G. Smith
Guitar: Paul Stacey
String Bass: Don Richardson
Drums: Mike Smith
Percussion: Mike Bradley, Ian Thomas, Lorraine Craig (vocal).
Directed by Bill Ashton.

(G) Trumpets: Mark White, Martin Shaw, Mark Cumberland, Gerard Presencer, Pat Fradgeley, Oliver Preece.
Trombones: Mark Nightingale, Andy Hutchinson, Dennis Rollins, Mark Bassey, Tibor Hartmann.
French Horn: Clare Lintott
Reeds: Pete Long, Adrian Revell, Alan Ladds, Scott Garland, Alison Brown, Julie Davis.
Piano: Jim Osborne
Guitar: Malcolm Macfarlane
Bass-Guitar: Neil Williams
Drums: Chris Dagley
Percussion: Gareth Roberts, Chris Wells.
Directed by Bill Charleson

(A) - tracks #1, 2, 9, 12
(B) - track #8
(C) - tracks #3, 6, 7
(D) - track #5
(E) - track #4
(F) - track #11
(G) - track #10


Трекер:  [ 27-Янв-2012 16:29 ]

  

Скачать .torrent

Размер .torrent файла 16 KB


Размер: 395 MB
Хэш (hash) релиза: 10cc568cccaf15fde91c2adf1a809b129b6458c0

Еще никто не оставлял запись к записи скачать торрент National Youth Jazz Orchestra — Maltese Cross — 1988, FLAC . Будь первым!

!Обратная связь