Скачать через торрент музыку The Oscar Pettiford Orchestra — Deep Passion — 1994, FLAC бесплатно без регистрации torrent

Если у вас наблюдаются проблемы со скриншотами, переходом по ссылками, скачиванием торрентов - проблемы в блокировщике рекламы AdBlock. #хорошегоДня!


Статистика раздачи
Размер:  428 MB   |    Зарегистрирован:  5 лет 8 месяцев   |    .torrent скачан:  41 раз   |   
Раздают:  1  
   
Загрузка...
 
Автор Сообщение

Umakiro

avatar Umakiro


The Oscar Pettiford Orchestra — Deep Passion

Жанр: Big Band
Год издания диска: 1994
Издатель (лейбл): impulse!
Номер по каталогу: GRP 11432
Аудиокодек: FLAC (*.flac)
Тип рипа: tracks+.cue
Битрейт аудио: lossless
Продолжительность: 67:49
Rip by alekow
Наличие сканов в содержимом раздачи: да

Треклист:
01. Nica's Tempo (3:50)
02. Deep Passion (3:44)
03. Smoke Signal (4:18)
04. Sunrise-Sunset (4:00)
05. Not So Sleepy (4:52)
06. Perdido (4:05)
07. Speculation (4:08)
08. Two French Fries (2:51)
09. The Pendulum At Falcon's Lair (3:03)
10. The Gentle Art Of Love (3:38)
11. Now See How You Are (5:14)
12. I Remember Clifford (4:44)
13. Aw! Come On (3:57)
14. Somewhere (4:03)
15. Laura (3:43)
16. Little Niles (4:44)
17. Seabreeze (2:56)

Rec.: June 11,12 & 19, 1956 (1-10) and August 23 & 30 and September 6, 1957.

 
Exact Audio Copy V1.0 beta 1 from 15. November 2010

EAC extraction logfile from 4. October 2011, 19:51

The Oscar Pettiford Orchestra / Deep Passion

Used drive : TSSTcorpCD/DVDW SH-S182D Adapter: 1 ID: 0

Read mode : SecureUtilize accurate stream : YesDefeat audio cache : YesMake use of C2 pointers : No

Read offset correction : 6Overread into Lead-In and Lead-Out : NoFill up missing offset samples with silence : YesDelete leading and trailing silent blocks : NoNull samples used in CRC calculations : YesUsed interface : Native Win32 interface for Win NT & 2000Gap handling : Appended to previous track

Used output format : User Defined EncoderSelected bitrate : 1024 kBit/sQuality : HighAdd ID3 tag : NoCommand line compressor : C:\Program Files\Exact Audio Copy\Flac\flac.exeAdditional command line options : -5 -V -T "ARTIST=%a" -T "TITLE=%t" -T "ALBUM=%g" -T "DATE=%y" -T "TRACKNUMBER=%n" -T "GENRE=%m" -T "COMMENT=%e" %s -o %d

TOC of the extracted CD

Track | Start | Length | Start sector | End sector --------------------------------------------------------- 1 | 0:00.33 | 3:50.25 | 33 | 17307 2 | 3:50.58 | 3:43.50 | 17308 | 34082 3 | 7:34.33 | 4:18.25 | 34083 | 53457 4 | 11:52.58 | 4:00.17 | 53458 | 71474 5 | 15:53.00 | 4:51.53 | 71475 | 93352 6 | 20:44.53 | 4:04.70 | 93353 | 111722 7 | 24:49.48 | 4:07.62 | 111723 | 130309 8 | 28:57.35 | 2:51.30 | 130310 | 143164 9 | 31:48.65 | 3:02.60 | 143165 | 156874 10 | 34:51.50 | 3:37.45 | 156875 | 173194 11 | 38:29.20 | 5:14.05 | 173195 | 196749 12 | 43:43.25 | 4:44.08 | 196750 | 218057 13 | 48:27.33 | 3:56.55 | 218058 | 235812 14 | 52:24.13 | 4:02.45 | 235813 | 254007 15 | 56:26.58 | 3:42.42 | 254008 | 270699 16 | 60:09.25 | 4:43.48 | 270700 | 291972 17 | 64:52.73 | 2:56.30 | 291973 | 305202

Track 1

Filename C:\New Folder\01. Nica's Tempo.wav

Pre-gap length 0:00:02.33

Peak level 86.7 % Extraction speed 3.0 X Track quality 100.0 % Test CRC 97D45938 Copy CRC 97D45938 Accurately ripped (confidence 2) [B738DEEA] Copy OK

Track 2

Filename C:\New Folder\02. Deep Passion.wav

Pre-gap length 0:00:02.01

Peak level 77.3 % Extraction speed 3.0 X Track quality 100.0 % Test CRC DF8CB947 Copy CRC DF8CB947 Accurately ripped (confidence 2) [F3691B54] Copy OK

Track 3

Filename C:\New Folder\03. Smoke Signal.wav

Pre-gap length 0:00:02.09

Peak level 78.3 % Extraction speed 2.8 X Track quality 99.9 % Test CRC 7B1354C3 Copy CRC 7B1354C3 Accurately ripped (confidence 2) [9BB36D43] Copy OK

Track 4

Filename C:\New Folder\04. Sunrise-Sunset.wav

Pre-gap length 0:00:02.16

Peak level 69.9 % Extraction speed 1.9 X Track quality 100.0 % Test CRC 0023AA14 Copy CRC 0023AA14 Accurately ripped (confidence 2) [2FA906A6] Copy OK

Track 5

Filename C:\New Folder\05. Not So Sleepy.wav

Pre-gap length 0:00:02.01

Peak level 73.6 % Extraction speed 2.5 X Track quality 100.0 % Test CRC 21374331 Copy CRC 21374331 Accurately ripped (confidence 2) [0DC5E841] Copy OK

Track 6

Filename C:\New Folder\06. Perdido.wav

Pre-gap length 0:00:01.34

Peak level 75.5 % Extraction speed 2.3 X Track quality 100.0 % Test CRC 981156E0 Copy CRC 981156E0 Accurately ripped (confidence 2) [D5419CE9] Copy OK

Track 7

Filename C:\New Folder\07. Speculation.wav

Pre-gap length 0:00:01.66

Peak level 67.2 % Extraction speed 2.3 X Track quality 100.0 % Test CRC 15C59418 Copy CRC 15C59418 Accurately ripped (confidence 2) [EFCA5632] Copy OK

Track 8

Filename C:\New Folder\08. Two French Fries.wav

Pre-gap length 0:00:02.06

Peak level 85.7 % Extraction speed 2.4 X Track quality 100.0 % Test CRC C35855BD Copy CRC C35855BD Accurately ripped (confidence 2) [F1CFAA7E] Copy OK

Track 9

Filename C:\New Folder\09. The Pendulum At Falcon's Lair.wav

Pre-gap length 0:00:01.56

Peak level 64.5 % Extraction speed 1.9 X Track quality 100.0 % Test CRC 51FB2AE3 Copy CRC 51FB2AE3 Accurately ripped (confidence 2) [8973B929] Copy OK

Track 10

Filename C:\New Folder\10. The Gentle Art Of Love.wav

Pre-gap length 0:00:02.18

Peak level 83.2 % Extraction speed 3.4 X Track quality 100.0 % Test CRC C17FE3C9 Copy CRC C17FE3C9 Accurately ripped (confidence 2) [7F76722A] Copy OK

Track 11

Filename C:\New Folder\11. Now See How You Are.wav

Pre-gap length 0:00:02.03

Peak level 75.8 % Extraction speed 4.1 X Track quality 100.0 % Test CRC AE25975F Copy CRC AE25975F Accurately ripped (confidence 2) [5B49E9B8] Copy OK

Track 12

Filename C:\New Folder\12. I Remember Clifford.wav

Pre-gap length 0:00:02.06

Peak level 77.2 % Extraction speed 4.0 X Track quality 100.0 % Test CRC 593B7BD3 Copy CRC 593B7BD3 Accurately ripped (confidence 2) [92F6DC88] Copy OK

Track 13

Filename C:\New Folder\13. Aw! Come On.wav

Pre-gap length 0:00:01.66

Peak level 75.7 % Extraction speed 3.6 X Track quality 100.0 % Test CRC 3B7AFB07 Copy CRC 3B7AFB07 Accurately ripped (confidence 2) [43E997FE] Copy OK

Track 14

Filename C:\New Folder\14. Somewhere.wav

Pre-gap length 0:00:02.01

Peak level 80.7 % Extraction speed 3.9 X Track quality 100.0 % Test CRC 93EADF8D Copy CRC 93EADF8D Accurately ripped (confidence 2) [7F1D3E36] Copy OK

Track 15

Filename C:\New Folder\15. Laura.wav

Pre-gap length 0:00:02.04

Peak level 72.3 % Extraction speed 2.6 X Track quality 100.0 % Test CRC 4CAC7617 Copy CRC 4CAC7617 Accurately ripped (confidence 2) [767C8A71] Copy OK

Track 16

Filename C:\New Folder\16. Little Niles.wav

Pre-gap length 0:00:01.66

Peak level 93.7 % Extraction speed 1.2 X Track quality 100.0 % Test CRC E78DCD4A Copy CRC E78DCD4A Accurately ripped (confidence 2) [0FF90BEA] Copy OK

Track 17

Filename C:\New Folder\17. Seabreeze.wav

Pre-gap length 0:00:01.51

Peak level 95.6 % Extraction speed 1.1 X Track quality 100.0 % Test CRC 9ED158B5 Copy CRC 9ED158B5 Accurately ripped (confidence 2) [2A084CB7] Copy OK

All tracks accurately ripped

No errors occurred

End of status report

==== Log checksum 8552B9E883B15C297FCD9B17153DCEEE02A0CE81D102B6DC74BBB8D28CB731F9 ====
 
REM GENRE JazzREM DATE 1994REM DISCID F10FE511REM COMMENT "ExactAudioCopy v1.0b1"PERFORMER "The Oscar Pettiford Orchestra"TITLE "Deep Passion"FILE "01. Nica's Tempo.wav" WAVE TRACK 01 AUDIO TITLE "Nica's Tempo" PERFORMER "The Oscar Pettiford Orchestra" PREGAP 00:00:33 INDEX 01 00:00:00 TRACK 02 AUDIO TITLE "Deep Passion" PERFORMER "The Oscar Pettiford Orchestra" INDEX 00 03:48:24FILE "02. Deep Passion.wav" WAVE INDEX 01 00:00:00 TRACK 03 AUDIO TITLE "Smoke Signal" PERFORMER "The Oscar Pettiford Orchestra" INDEX 00 03:41:41FILE "03. Smoke Signal.wav" WAVE INDEX 01 00:00:00 TRACK 04 AUDIO TITLE "Sunrise-Sunset" PERFORMER "The Oscar Pettiford Orchestra" INDEX 00 04:16:09FILE "04. Sunrise-Sunset.wav" WAVE INDEX 01 00:00:00 TRACK 05 AUDIO TITLE "Not So Sleepy" PERFORMER "The Oscar Pettiford Orchestra" INDEX 00 03:58:16FILE "05. Not So Sleepy.wav" WAVE INDEX 01 00:00:00 TRACK 06 AUDIO TITLE "Perdido" PERFORMER "The Oscar Pettiford Orchestra" INDEX 00 04:50:19FILE "06. Perdido.wav" WAVE INDEX 01 00:00:00 TRACK 07 AUDIO TITLE "Speculation" PERFORMER "The Oscar Pettiford Orchestra" INDEX 00 04:03:04FILE "07. Speculation.wav" WAVE INDEX 01 00:00:00 TRACK 08 AUDIO TITLE "Two French Fries" PERFORMER "The Oscar Pettiford Orchestra" INDEX 00 04:05:56FILE "08. Two French Fries.wav" WAVE INDEX 01 00:00:00 TRACK 09 AUDIO TITLE "The Pendulum At Falcon's Lair" PERFORMER "The Oscar Pettiford Orchestra" INDEX 00 02:49:49FILE "09. The Pendulum At Falcon's Lair.wav" WAVE INDEX 01 00:00:00 TRACK 10 AUDIO TITLE "The Gentle Art Of Love" PERFORMER "The Oscar Pettiford Orchestra" INDEX 00 03:00:42FILE "10. The Gentle Art Of Love.wav" WAVE INDEX 01 00:00:00 TRACK 11 AUDIO TITLE "Now See How You Are" PERFORMER "The Oscar Pettiford Orchestra" INDEX 00 03:35:42FILE "11. Now See How You Are.wav" WAVE INDEX 01 00:00:00 TRACK 12 AUDIO TITLE "I Remember Clifford" PERFORMER "The Oscar Pettiford Orchestra" INDEX 00 05:11:74FILE "12. I Remember Clifford.wav" WAVE INDEX 01 00:00:00 TRACK 13 AUDIO TITLE "Aw! Come On" PERFORMER "The Oscar Pettiford Orchestra" INDEX 00 04:42:17FILE "13. Aw! Come On.wav" WAVE INDEX 01 00:00:00 TRACK 14 AUDIO TITLE "Somewhere" PERFORMER "The Oscar Pettiford Orchestra" INDEX 00 03:54:54FILE "14. Somewhere.wav" WAVE INDEX 01 00:00:00 TRACK 15 AUDIO TITLE "Laura" PERFORMER "The Oscar Pettiford Orchestra" INDEX 00 04:00:41FILE "15. Laura.wav" WAVE INDEX 01 00:00:00 TRACK 16 AUDIO TITLE "Little Niles" PERFORMER "The Oscar Pettiford Orchestra" INDEX 00 03:40:51FILE "16. Little Niles.wav" WAVE INDEX 01 00:00:00 TRACK 17 AUDIO TITLE "Seabreeze" PERFORMER "The Oscar Pettiford Orchestra" INDEX 00 04:41:72FILE "17. Seabreeze.wav" WAVE INDEX 01 00:00:00
 
[CUETools log; Date: 05.10.2011 9:07:25; Version: 2.0.9]Pregap length 00:00:33.[CTDB TOCID: 6SrvRlls_wF52..d91ZsW7GpEbc-] disk not present in database.[AccurateRip ID: 002a136b-02154e8b-f10fe511] found.Track [ CRC ] Status 01 [b738deea] (2/2) Accurately ripped 02 [f3691b54] (2/2) Accurately ripped 03 [9bb36d43] (2/2) Accurately ripped 04 [2fa906a6] (2/2) Accurately ripped 05 [0dc5e841] (2/2) Accurately ripped 06 [d5419ce9] (2/2) Accurately ripped 07 [efca5632] (2/2) Accurately ripped 08 [f1cfaa7e] (2/2) Accurately ripped 09 [8973b929] (2/2) Accurately ripped 10 [7f76722a] (2/2) Accurately ripped 11 [5b49e9b8] (2/2) Accurately ripped 12 [92f6dc88] (2/2) Accurately ripped 13 [43e997fe] (2/2) Accurately ripped 14 [7f1d3e36] (2/2) Accurately ripped 15 [767c8a71] (2/2) Accurately ripped 16 [0ff90bea] (2/2) Accurately ripped 17 [2a084cb7] (2/2) Accurately ripped

Track Peak [ CRC32 ] [W/O NULL] [ LOG ] -- 95,6 [35D9BEE4] [FD0AD6ED] 01 86,7 [97D45938] [EFC69CCD] CRC32 02 77,3 [DF8CB947] [452E12F0] CRC32 03 78,3 [7B1354C3] [4A90E66A] CRC32 04 69,9 [0023AA14] [AFC3C720] CRC32 05 73,6 [21374331] [F1A2455A] CRC32 06 75,5 [981156E0] [062E14C4] CRC32 07 67,2 [15C59418] [31753089] CRC32 08 85,7 [C35855BD] [CE133F4B] CRC32 09 64,5 [51FB2AE3] [99A138DA] CRC32 10 83,2 [C17FE3C9] [19D07199] CRC32 11 75,8 [AE25975F] [1050AA33] CRC32 12 77,2 [593B7BD3] [192D824D] CRC32 13 75,7 [3B7AFB07] [1CB3C8AF] CRC32 14 80,7 [93EADF8D] [77A779C4] CRC32 15 72,3 [4CAC7617] [7C1FA92F] CRC32 16 93,7 [E78DCD4A] [BDF20C18] CRC32 17 95,6 [9ED158B5] [29211AEA] CRC32
Oscar Pettiford - bass, cello
Osie Johnson, Gus Johnson, Shadow Wilson – drums
Ernie Royal, Art Farmer, Ray Copeland, Kenny Dorham – trumpet
Jimmy Cleveland, Al Grey – trombone
Julius Watkins, Dave Amram - french horn
Gigi Gryce, Lucky Thompson, Jerome Richardson, Danny Bank – reeds
Benny Golson, Sahib Shihab - reeds (11 -20)
Tommy Flanagan, Dick Katz – piano
and others


Трекер:  [ 27-Янв-2012 16:28 ]

  

Скачать .torrent

Размер .torrent файла 18 KB


Размер: 428 MB
Хэш (hash) релиза: 31f1962014bcef367dfe17bfd3821a042f7f425f

Еще никто не оставлял запись к записи скачать торрент The Oscar Pettiford Orchestra — Deep Passion — 1994, FLAC . Будь первым!

!Обратная связь