Скачать через торрент музыку Mose Allison — Down Home Piano бесплатно без регистрации torrent

Если у вас наблюдаются проблемы со скриншотами, переходом по ссылками, скачиванием торрентов - проблемы в блокировщике рекламы AdBlock. #хорошегоДня!


Статистика раздачи
Размер:  243 MB   |    Зарегистрирован:  5 лет 8 месяцев   |    .torrent скачан:  29 раз   |   
Раздают:  1  
   
Загрузка...
 
Автор Сообщение

Umakiro

avatar Umakiro


Mose Allison — Down Home Piano (1959)

Жанр: Post-Bop
Год издания диска: 1997
Издатель (лейбл): OJC/Prestige
Номер по каталогу: OJCCD-922-2
Аудиокодек: FLAC (*.flac)
Тип рипа: tracks+.cue
Битрейт аудио: lossless
Продолжительность: 38:09
Риппер: durmoll
Наличие сканов в содержимом раздачи: да

Треклист:
01. Dinner On The Ground (3:20)
02. Crepuscular Air (3:48)
03. Mule (3:58)
04. Creek Bank (4:40)
05. Town (3:27)
06. Devil In The Cane Field (4:08)
07. The Minstrels (3:33)
08. Moon And Cypress (4:07)
09. Carnival (3:04)
10. Mojo Woman (4:06)

Personnel:
Mose Allison - p
Addison Farmer - b
Ronnie Free, Nick Stabulas - d
 
Exact Audio Copy V0.99 prebeta 5 from 4. May 2009

EAC extraction logfile from 19. October 2011, 13:23

Mose Allison / Down Home Piano

Used drive : ASUS DRW-20B1LT Adapter: 6 ID: 1

Read mode : SecureUtilize accurate stream : YesDefeat audio cache : YesMake use of C2 pointers : No

Read offset correction : 6Overread into Lead-In and Lead-Out : NoFill up missing offset samples with silence : YesDelete leading and trailing silent blocks : NoNull samples used in CRC calculations : YesUsed interface : Native Win32 interface for Win NT & 2000Gap handling : Appended to previous track

Used output format : Internal WAV RoutinesSample format : 44.100 Hz; 16 Bit; Stereo

TOC of the extracted CD

Track | Start | Length | Start sector | End sector --------------------------------------------------------- 1 | 0:00.00 | 3:19.40 | 0 | 14964 2 | 3:19.40 | 3:47.47 | 14965 | 32036 3 | 7:07.12 | 3:57.50 | 32037 | 49861 4 | 11:04.62 | 4:39.43 | 49862 | 70829 5 | 15:44.30 | 3:27.15 | 70830 | 86369 6 | 19:11.45 | 4:07.70 | 86370 | 104964 7 | 23:19.40 | 3:32.72 | 104965 | 120936 8 | 26:52.37 | 4:06.38 | 120937 | 139424 9 | 30:59.00 | 3:03.72 | 139425 | 153221 10 | 34:02.72 | 4:05.65 | 153222 | 171661

Track 1

Filename C:\rip\01 - Dinner On The Ground.wav

Pre-gap length 0:00:02.00

Peak level 100.0 % Track quality 100.0 % Test CRC FB5D76C6 Copy CRC FB5D76C6 Accurately ripped (confidence 2) [4BED7FA5] Copy OK

Track 2

Filename C:\rip\02 - Crepuscular Air.wav

Pre-gap length 0:00:02.21

Peak level 71.2 % Track quality 100.0 % Test CRC 9E7A5E7C Copy CRC 9E7A5E7C Accurately ripped (confidence 2) [E7D53280] Copy OK

Track 3

Filename C:\rip\03 - Mule.wav

Pre-gap length 0:00:01.27

Peak level 99.8 % Track quality 100.0 % Test CRC 317F6D4E Copy CRC 317F6D4E Accurately ripped (confidence 2) [C9FD1436] Copy OK

Track 4

Filename C:\rip\04 - Creek Bank.wav

Pre-gap length 0:00:02.71

Peak level 99.5 % Track quality 99.9 % Test CRC 4D718CFC Copy CRC 4D718CFC Accurately ripped (confidence 2) [B6265BCB] Copy OK

Track 5

Filename C:\rip\05 - Town.wav

Pre-gap length 0:00:01.71

Peak level 94.9 % Track quality 99.9 % Test CRC C69DD101 Copy CRC C69DD101 Accurately ripped (confidence 2) [E31F1742] Copy OK

Track 6

Filename C:\rip\06 - Devil In The Cane Field.wav

Pre-gap length 0:00:01.64

Peak level 100.0 % Track quality 100.0 % Test CRC B1C2AC50 Copy CRC B1C2AC50 Accurately ripped (confidence 2) [F8A81972] Copy OK

Track 7

Filename C:\rip\07 - The Minstrels.wav

Pre-gap length 0:00:02.36

Peak level 100.0 % Track quality 100.0 % Test CRC 79F803F8 Copy CRC 79F803F8 Accurately ripped (confidence 2) [DCA431D7] Copy OK

Track 8

Filename C:\rip\08 - Moon And Cypress.wav

Pre-gap length 0:00:01.71

Peak level 99.6 % Track quality 100.0 % Test CRC BFB8BF4A Copy CRC BFB8BF4A Accurately ripped (confidence 2) [E15A4F51] Copy OK

Track 9

Filename C:\rip\09 - Carnival.wav

Pre-gap length 0:00:02.41

Peak level 99.7 % Track quality 99.9 % Test CRC B4A18F0F Copy CRC B4A18F0F Accurately ripped (confidence 2) [21485058] Copy OK

Track 10

Filename C:\rip\10 - Mojo Woman.wav

Pre-gap length 0:00:02.73

Peak level 94.9 % Track quality 100.0 % Test CRC 946AE151 Copy CRC 946AE151 Accurately ripped (confidence 2) [D4122732] Copy OK

All tracks accurately ripped

No errors occurred

End of status report
 
REM DATE 1957REM DISCID 6F08F00AREM COMMENT "ExactAudioCopy v0.99pb5"PERFORMER "Mose Allison"TITLE "Down Home Piano"FILE "01 - Dinner On The Ground.wav" WAVE TRACK 01 AUDIO TITLE "Dinner On The Ground" PERFORMER "Mose Allison" INDEX 01 00:00:00 TRACK 02 AUDIO TITLE "Crepuscular Air" PERFORMER "Mose Allison" INDEX 00 03:17:19FILE "02 - Crepuscular Air.wav" WAVE INDEX 01 00:00:00 TRACK 03 AUDIO TITLE "Mule" PERFORMER "Mose Allison" INDEX 00 03:46:20FILE "03 - Mule.wav" WAVE INDEX 01 00:00:00 TRACK 04 AUDIO TITLE "Creek Bank" PERFORMER "Mose Allison" INDEX 00 03:54:54FILE "04 - Creek Bank.wav" WAVE INDEX 01 00:00:00 TRACK 05 AUDIO TITLE "Town" PERFORMER "Mose Allison" INDEX 00 04:37:47FILE "05 - Town.wav" WAVE INDEX 01 00:00:00 TRACK 06 AUDIO TITLE "Devil In The Cane Field" PERFORMER "Mose Allison" INDEX 00 03:25:26FILE "06 - Devil In The Cane Field.wav" WAVE INDEX 01 00:00:00 TRACK 07 AUDIO TITLE "The Minstrels" PERFORMER "Mose Allison" INDEX 00 04:05:34FILE "07 - The Minstrels.wav" WAVE INDEX 01 00:00:00 TRACK 08 AUDIO TITLE "Moon And Cypress" PERFORMER "Mose Allison" INDEX 00 03:31:01FILE "08 - Moon And Cypress.wav" WAVE INDEX 01 00:00:00 TRACK 09 AUDIO TITLE "Carnival" PERFORMER "Mose Allison" INDEX 00 04:03:72FILE "09 - Carnival.wav" WAVE INDEX 01 00:00:00 TRACK 10 AUDIO TITLE "Mojo Woman" PERFORMER "Mose Allison" INDEX 00 03:00:74FILE "10 - Mojo Woman.wav" WAVE INDEX 01 00:00:00


Трекер:  [ 27-Янв-2012 16:27 ]

  

Скачать .torrent

Размер .torrent файла 20 KB


Размер: 243 MB
Хэш (hash) релиза: aecf891d22dd72eb27989f719dd46a3add3d74ab

Еще никто не оставлял запись к записи скачать торрент Mose Allison — Down Home Piano . Будь первым!

!Обратная связь